  0
SECTION
  2
HEADER
  9
$ACADVER
  1
AC1024
  9
$ACADMAINTVER
 70
   109
  9
$DWGCODEPAGE
  3
ANSI_1252
  9
$LASTSAVEDBY
  1
Administrator
  9
$INSBASE
 10
0.0
 20
0.0
 30
0.0
  9
$EXTMIN
 10
-27165.80706739438
 20
-44.88087498844834
 30
-0.0015258207003583
  9
$EXTMAX
 10
-26165.01371633128
 20
1510.187702227093
 30
0.0000000349246037
  9
$LIMMIN
 10
0.0
 20
0.0
  9
$LIMMAX
 10
420.0
 20
297.0
  9
$ORTHOMODE
 70
     1
  9
$REGENMODE
 70
     1
  9
$FILLMODE
 70
     1
  9
$QTEXTMODE
 70
     0
  9
$MIRRTEXT
 70
     0
  9
$LTSCALE
 40
1.0
  9
$ATTMODE
 70
     1
  9
$TEXTSIZE
 40
2.5
  9
$TRACEWID
 40
1.0
  9
$TEXTSTYLE
  7
Standard
  9
$CLAYER
  8
0
  9
$CELTYPE
  6
ByLayer
  9
$CECOLOR
 62
   256
  9
$CELTSCALE
 40
1.0
  9
$DISPSILH
 70
     0
  9
$DIMSCALE
 40
1.0
  9
$DIMASZ
 40
15.0
  9
$DIMEXO
 40
1.0
  9
$DIMDLI
 40
3.75
  9
$DIMRND
 40
0.0
  9
$DIMDLE
 40
0.0
  9
$DIMEXE
 40
1.25
  9
$DIMTP
 40
0.0
  9
$DIMTM
 40
0.0
  9
$DIMTXT
 40
35.0
  9
$DIMCEN
 40
0.5
  9
$DIMTSZ
 40
0.0
  9
$DIMTOL
 70
     0
  9
$DIMLIM
 70
     0
  9
$DIMTIH
 70
     0
  9
$DIMTOH
 70
     0
  9
$DIMSE1
 70
     0
  9
$DIMSE2
 70
     0
  9
$DIMTAD
 70
     1
  9
$DIMZIN
 70
     8
  9
$DIMBLK
  1

  9
$DIMASO
 70
     1
  9
$DIMSHO
 70
     1
  9
$DIMPOST
  1

  9
$DIMAPOST
  1

  9
$DIMALT
 70
     0
  9
$DIMALTD
 70
     3
  9
$DIMALTF
 40
0.03937007874016
  9
$DIMLFAC
 40
1.0
  9
$DIMTOFL
 70
     1
  9
$DIMTVP
 40
0.0
  9
$DIMTIX
 70
     0
  9
$DIMSOXD
 70
     0
  9
$DIMSAH
 70
     0
  9
$DIMBLK1
  1

  9
$DIMBLK2
  1

  9
$DIMSTYLE
  2
ISO-25
  9
$DIMCLRD
 70
     0
  9
$DIMCLRE
 70
     0
  9
$DIMCLRT
 70
     0
  9
$DIMTFAC
 40
1.0
  9
$DIMGAP
 40
3.0
  9
$DIMJUST
 70
     0
  9
$DIMSD1
 70
     0
  9
$DIMSD2
 70
     0
  9
$DIMTOLJ
 70
     0
  9
$DIMTZIN
 70
     8
  9
$DIMALTZ
 70
     0
  9
$DIMALTTZ
 70
     0
  9
$DIMUPT
 70
     0
  9
$DIMDEC
 70
     2
  9
$DIMTDEC
 70
     2
  9
$DIMALTU
 70
     2
  9
$DIMALTTD
 70
     3
  9
$DIMTXSTY
  7
Standard
  9
$DIMAUNIT
 70
     0
  9
$DIMADEC
 70
     2
  9
$DIMALTRND
 40
0.0
  9
$DIMAZIN
 70
     0
  9
$DIMDSEP
 70
    44
  9
$DIMATFIT
 70
     3
  9
$DIMFRAC
 70
     0
  9
$DIMLDRBLK
  1

  9
$DIMLUNIT
 70
     2
  9
$DIMLWD
 70
    -2
  9
$DIMLWE
 70
    -2
  9
$DIMTMOVE
 70
     0
  9
$DIMFXL
 40
1.0
  9
$DIMFXLON
 70
     0
  9
$DIMJOGANG
 40
0.7853981633974483
  9
$DIMTFILL
 70
     0
  9
$DIMTFILLCLR
 70
     0
  9
$DIMARCSYM
 70
     0
  9
$DIMLTYPE
  6

  9
$DIMLTEX1
  6

  9
$DIMLTEX2
  6

  9
$DIMTXTDIRECTION
 70
     0
  9
$LUNITS
 70
     2
  9
$LUPREC
 70
     4
  9
$SKETCHINC
 40
1.0
  9
$FILLETRAD
 40
25.0
  9
$AUNITS
 70
     0
  9
$AUPREC
 70
     0
  9
$MENU
  1
.
  9
$ELEVATION
 40
0.0
  9
$PELEVATION
 40
0.0
  9
$THICKNESS
 40
0.0
  9
$LIMCHECK
 70
     0
  9
$CHAMFERA
 40
240.0
  9
$CHAMFERB
 40
240.0
  9
$CHAMFERC
 40
0.0
  9
$CHAMFERD
 40
0.0
  9
$SKPOLY
 70
     0
  9
$TDCREATE
 40
2453649.352115521
  9
$TDUCREATE
 40
2453649.352115521
  9
$TDUPDATE
 40
2456169.068379086
  9
$TDUUPDATE
 40
2456169.068379086
  9
$TDINDWG
 40
4.6433272454
  9
$TDUSRTIMER
 40
4.6433223727
  9
$USRTIMER
 70
     1
  9
$ANGBASE
 50
0.0
  9
$ANGDIR
 70
     0
  9
$PDMODE
 70
     0
  9
$PDSIZE
 40
0.0
  9
$PLINEWID
 40
0.0
  9
$SPLFRAME
 70
     0
  9
$SPLINETYPE
 70
     6
  9
$SPLINESEGS
 70
     8
  9
$HANDSEED
  5
2527E
  9
$SURFTAB1
 70
     6
  9
$SURFTAB2
 70
     6
  9
$SURFTYPE
 70
     6
  9
$SURFU
 70
     6
  9
$SURFV
 70
     6
  9
$UCSBASE
  2

  9
$UCSNAME
  2

  9
$UCSORG
 10
0.0
 20
0.0
 30
0.0
  9
$UCSXDIR
 10
1.0
 20
0.0
 30
0.0
  9
$UCSYDIR
 10
0.0
 20
1.0
 30
0.0
  9
$UCSORTHOREF
  2

  9
$UCSORTHOVIEW
 70
     0
  9
$UCSORGTOP
 10
0.0
 20
0.0
 30
0.0
  9
$UCSORGBOTTOM
 10
0.0
 20
0.0
 30
0.0
  9
$UCSORGLEFT
 10
0.0
 20
0.0
 30
0.0
  9
$UCSORGRIGHT
 10
0.0
 20
0.0
 30
0.0
  9
$UCSORGFRONT
 10
0.0
 20
0.0
 30
0.0
  9
$UCSORGBACK
 10
0.0
 20
0.0
 30
0.0
  9
$PUCSBASE
  2

  9
$PUCSNAME
  2

  9
$PUCSORG
 10
0.0
 20
0.0
 30
0.0
  9
$PUCSXDIR
 10
1.0
 20
0.0
 30
0.0
  9
$PUCSYDIR
 10
0.0
 20
1.0
 30
0.0
  9
$PUCSORTHOREF
  2

  9
$PUCSORTHOVIEW
 70
     0
  9
$PUCSORGTOP
 10
0.0
 20
0.0
 30
0.0
  9
$PUCSORGBOTTOM
 10
0.0
 20
0.0
 30
0.0
  9
$PUCSORGLEFT
 10
0.0
 20
0.0
 30
0.0
  9
$PUCSORGRIGHT
 10
0.0
 20
0.0
 30
0.0
  9
$PUCSORGFRONT
 10
0.0
 20
0.0
 30
0.0
  9
$PUCSORGBACK
 10
0.0
 20
0.0
 30
0.0
  9
$USERI1
 70
     0
  9
$USERI2
 70
     0
  9
$USERI3
 70
     0
  9
$USERI4
 70
     0
  9
$USERI5
 70
     0
  9
$USERR1
 40
0.0
  9
$USERR2
 40
0.0
  9
$USERR3
 40
0.0
  9
$USERR4
 40
0.0
  9
$USERR5
 40
2.5
  9
$WORLDVIEW
 70
     1
  9
$SHADEDGE
 70
     3
  9
$SHADEDIF
 70
    70
  9
$TILEMODE
 70
     1
  9
$MAXACTVP
 70
    64
  9
$PINSBASE
 10
0.0
 20
0.0
 30
0.0
  9
$PLIMCHECK
 70
     0
  9
$PEXTMIN
 10
0.0
 20
0.0
 30
0.0
  9
$PEXTMAX
 10
0.0
 20
0.0
 30
0.0
  9
$PLIMMIN
 10
0.0
 20
0.0
  9
$PLIMMAX
 10
12.0
 20
9.0
  9
$UNITMODE
 70
     0
  9
$VISRETAIN
 70
     1
  9
$PLINEGEN
 70
     0
  9
$PSLTSCALE
 70
     1
  9
$TREEDEPTH
 70
  3020
  9
$CMLSTYLE
  2
Standard
  9
$CMLJUST
 70
     0
  9
$CMLSCALE
 40
20.0
  9
$PROXYGRAPHICS
 70
     1
  9
$MEASUREMENT
 70
     1
  9
$CELWEIGHT
370
    -1
  9
$ENDCAPS
280
     0
  9
$JOINSTYLE
280
     0
  9
$LWDISPLAY
290
     0
  9
$INSUNITS
 70
     4
  9
$HYPERLINKBASE
  1

  9
$STYLESHEET
  1

  9
$XEDIT
290
     1
  9
$CEPSNTYPE
380
     0
  9
$PSTYLEMODE
290
     1
  9
$FINGERPRINTGUID
  2
{FDEAD578-A652-11D2-9A35-0060089B3A3F}
  9
$VERSIONGUID
  2
{60AB26D0-20EC-4CE0-A580-AFD916779546}
  9
$EXTNAMES
290
     1
  9
$PSVPSCALE
 40
0.0
  9
$OLESTARTUP
290
     0
  9
$SORTENTS
280
   127
  9
$INDEXCTL
280
     0
  9
$HIDETEXT
280
     1
  9
$XCLIPFRAME
280
     0
  9
$HALOGAP
280
     0
  9
$OBSCOLOR
 70
   257
  9
$OBSLTYPE
280
     0
  9
$INTERSECTIONDISPLAY
280
     0
  9
$INTERSECTIONCOLOR
 70
   257
  9
$DIMASSOC
280
     2
  9
$PROJECTNAME
  1

  9
$CAMERADISPLAY
290
     0
  9
$LENSLENGTH
 40
50.0
  9
$CAMERAHEIGHT
 40
0.0
  9
$STEPSPERSEC
 40
2.0
  9
$STEPSIZE
 40
6.0
  9
$3DDWFPREC
 40
2.0
  9
$PSOLWIDTH
 40
0.25
  9
$PSOLHEIGHT
 40
4.0
  9
$LOFTANG1
 40
1.570796326794896
  9
$LOFTANG2
 40
1.570796326794896
  9
$LOFTMAG1
 40
0.0
  9
$LOFTMAG2
 40
0.0
  9
$LOFTPARAM
 70
     7
  9
$LOFTNORMALS
280
     1
  9
$LATITUDE
 40
37.795
  9
$LONGITUDE
 40
-122.394
  9
$NORTHDIRECTION
 40
0.0
  9
$TIMEZONE
 70
 -8000
  9
$LIGHTGLYPHDISPLAY
280
     1
  9
$TILEMODELIGHTSYNCH
280
     1
  9
$CMATERIAL
347
25169
  9
$SOLIDHIST
280
     1
  9
$SHOWHIST
280
     1
  9
$DWFFRAME
280
     2
  9
$DGNFRAME
280
     0
  9
$REALWORLDSCALE
290
     1
  9
$INTERFERECOLOR
 62
     1
  9
$INTERFEREOBJVS
345
25176
  9
$INTERFEREVPVS
346
25173
  9
$CSHADOW
280
     0
  9
$SHADOWPLANELOCATION
 40
0.0
  0
ENDSEC
  0
SECTION
  2
CLASSES
  0
CLASS
  1
ACDBDICTIONARYWDFLT
  2
AcDbDictionaryWithDefault
  3
ObjectDBX Classes
 90
        0
 91
        1
280
     0
281
     0
  0
CLASS
  1
ACDBPLACEHOLDER
  2
AcDbPlaceHolder
  3
ObjectDBX Classes
 90
        0
 91
        1
280
     0
281
     0
  0
CLASS
  1
LAYOUT
  2
AcDbLayout
  3
ObjectDBX Classes
 90
        0
 91
        3
280
     0
281
     0
  0
CLASS
  1
DICTIONARYVAR
  2
AcDbDictionaryVar
  3
ObjectDBX Classes
 90
        0
 91
       12
280
     0
281
     0
  0
CLASS
  1
DIMASSOC
  2
AcDbDimAssoc
  3
"AcDbDimAssoc|Product Desc:     AcDim ARX App For Dimension|Company:          Autodesk, Inc.|WEB Address:      www.autodesk.com"
 90
        0
 91
       23
280
     0
281
     0
  0
CLASS
  1
VLO-VL
  2
vlo_VL
  3
VL|AutoLISP based application
 90
      129
 91
        1
280
     0
281
     0
  0
CLASS
  1
MATERIAL
  2
AcDbMaterial
  3
ObjectDBX Classes
 90
     1153
 91
        3
280
     0
281
     0
  0
CLASS
  1
VISUALSTYLE
  2
AcDbVisualStyle
  3
ObjectDBX Classes
 90
     4095
 91
       26
280
     0
281
     0
  0
CLASS
  1
TABLESTYLE
  2
AcDbTableStyle
  3
ObjectDBX Classes
 90
     4095
 91
        1
280
     0
281
     0
  0
CLASS
  1
SCALE
  2
AcDbScale
  3
ObjectDBX Classes
 90
     1153
 91
       17
280
     0
281
     0
  0
CLASS
  1
MLEADERSTYLE
  2
AcDbMLeaderStyle
  3
ACDB_MLEADERSTYLE_CLASS
 90
     4095
 91
        1
280
     0
281
     0
  0
CLASS
  1
ACDBSECTIONVIEWSTYLE
  2
AcDbSectionViewStyle
  3
ObjectDBX Classes
 90
     1025
 91
        1
280
     0
281
     0
  0
CLASS
  1
ACDBDETAILVIEWSTYLE
  2
AcDbDetailViewStyle
  3
ObjectDBX Classes
 90
     1025
 91
        1
280
     0
281
     0
  0
CLASS
  1
CELLSTYLEMAP
  2
AcDbCellStyleMap
  3
ObjectDBX Classes
 90
     1152
 91
        1
280
     0
281
     0
  0
ENDSEC
  0
SECTION
  2
TABLES
  0
TABLE
  2
VPORT
  5
8
330
0
100
AcDbSymbolTable
 70
     1
  0
VPORT
  5
25167
330
8
100
AcDbSymbolTableRecord
100
AcDbViewportTableRecord
  2
*Active
 70
     0
 10
0.0
 20
0.0
 11
1.0
 21
1.0
 12
-27239.91823534384
 22
776.1440146313397
 13
0.0
 23
0.0
 14
10.0
 24
10.0
 15
10.0
 25
10.0
 16
0.0
 26
0.0
 36
1.0
 17
0.0
 27
0.0
 37
0.0
 40
1890.09269681049
 41
1.324840764331209
 42
50.0
 43
0.0
 44
0.0
 50
0.0
 51
0.0
 71
     0
 72
  1000
 73
     1
 74
     3
 75
     0
 76
     1
 77
     0
 78
     0
281
     0
 65
     1
110
0.0
120
0.0
130
0.0
111
1.0
121
0.0
131
0.0
112
0.0
122
1.0
132
0.0
 79
     0
146
0.0
348
25172
 60
     3
 61
     5
292
     1
282
     1
141
0.0
142
0.0
 63
   250
421
  3355443
  0
ENDTAB
  0
TABLE
  2
LTYPE
  5
5
330
0
100
AcDbSymbolTable
 70
     3
  0
LTYPE
  5
14
330
5
100
AcDbSymbolTableRecord
100
AcDbLinetypeTableRecord
  2
ByBlock
 70
     0
  3

 72
    65
 73
     0
 40
0.0
  0
LTYPE
  5
15
330
5
100
AcDbSymbolTableRecord
100
AcDbLinetypeTableRecord
  2
ByLayer
 70
     0
  3

 72
    65
 73
     0
 40
0.0
  0
LTYPE
  5
16
330
5
100
AcDbSymbolTableRecord
100
AcDbLinetypeTableRecord
  2
Continuous
 70
     0
  3
Solid line
 72
    65
 73
     0
 40
0.0
  0
LTYPE
  5
5BBC
330
5
100
AcDbSymbolTableRecord
100
AcDbLinetypeTableRecord
  2
CENTER
 70
     0
  3
Center ____ _ ____ _ ____ _ ____ _ ____ _ ____
 72
    65
 73
     4
 40
50.8
 49
31.75
 74
     0
 49
-6.349999999999998
 74
     0
 49
6.349999999999998
 74
     0
 49
-6.349999999999998
 74
     0
  0
LTYPE
  5
6D14
330
5
100
AcDbSymbolTableRecord
100
AcDbLinetypeTableRecord
  2
ACAD_ISO02W100
 70
     0
  3
ISO dash __ __ __ __ __ __ __ __ __ __ __ __ __
 72
    65
 73
     2
 40
15.0
 49
12.0
 74
     0
 49
-3.0
 74
     0
  0
ENDTAB
  0
TABLE
  2
LAYER
  5
2
330
0
100
AcDbSymbolTable
 70
    31
  0
LAYER
  5
10
330
2
100
AcDbSymbolTableRecord
100
AcDbLayerTableRecord
  2
0
 70
     0
 62
     7
  6
Continuous
370
    25
390
F
347
2516B
  0
LAYER
  5
84
330
2
100
AcDbSymbolTableRecord
100
AcDbLayerTableRecord
  2
base
 70
     0
 62
     4
  6
Continuous
370
    40
390
F
347
2516B
  0
LAYER
  5
1DA
330
2
100
AcDbSymbolTableRecord
100
AcDbLayerTableRecord
  2
Defpoints
 70
     0
 62
     7
  6
Continuous
290
     0
370
    -3
390
F
347
2516B
  0
LAYER
  5
2D93
330
2
100
AcDbSymbolTableRecord
100
AcDbLayerTableRecord
  2
DIM
 70
     0
 62
     7
  6
Continuous
370
    13
390
F
347
2516B
  0
LAYER
  5
5E45
330
2
100
AcDbSymbolTableRecord
100
AcDbLayerTableRecord
  2
DIMJ
 70
     0
 62
   221
  6
Continuous
370
    15
390
F
347
2516B
  0
LAYER
  5
6405
330
2
100
AcDbSymbolTableRecord
100
AcDbLayerTableRecord
  2
上模架
 70
     0
 62
     1
  6
Continuous
370
    25
390
F
347
2516B
  0
LAYER
  5
6406
330
2
100
AcDbSymbolTableRecord
100
AcDbLayerTableRecord
  2
上模
 70
     0
 62
     3
  6
Continuous
370
    25
390
F
347
2516B
  0
LAYER
  5
6407
330
2
100
AcDbSymbolTableRecord
100
AcDbLayerTableRecord
  2
压边圈
 70
     0
 62
     6
  6
Continuous
370
    25
390
F
347
2516B
  0
LAYER
  5
6408
330
2
100
AcDbSymbolTableRecord
100
AcDbLayerTableRecord
  2
垫板
 70
     0
 62
     1
  6
Continuous
370
    25
390
F
347
2516B
  0
LAYER
  5
6409
330
2
100
AcDbSymbolTableRecord
100
AcDbLayerTableRecord
  2
模芯1
 70
     0
 62
     5
  6
Continuous
370
    25
390
F
347
2516B
  0
LAYER
  5
640A
330
2
100
AcDbSymbolTableRecord
100
AcDbLayerTableRecord
  2
下模座
 70
     0
 62
     2
  6
Continuous
370
    25
390
F
347
2516B
  0
LAYER
  5
640B
330
2
100
AcDbSymbolTableRecord
100
AcDbLayerTableRecord
  2
上模架DIM
 70
     0
 62
     7
  6
Continuous
370
     9
390
F
347
2516B
  0
LAYER
  5
640C
330
2
100
AcDbSymbolTableRecord
100
AcDbLayerTableRecord
  2
上模DIM
 70
     0
 62
     7
  6
Continuous
370
    20
390
F
347
2516B
  0
LAYER
  5
640D
330
2
100
AcDbSymbolTableRecord
100
AcDbLayerTableRecord
  2
压边圈DIM
 70
     0
 62
     7
  6
Continuous
370
     9
390
F
347
2516B
  0
LAYER
  5
640E
330
2
100
AcDbSymbolTableRecord
100
AcDbLayerTableRecord
  2
垫板DIM
 70
     0
 62
     7
  6
Continuous
370
     9
390
F
347
2516B
  0
LAYER
  5
640F
330
2
100
AcDbSymbolTableRecord
100
AcDbLayerTableRecord
  2
模芯1DIM
 70
     0
 62
     7
  6
Continuous
370
    20
390
F
347
2516B
  0
LAYER
  5
6410
330
2
100
AcDbSymbolTableRecord
100
AcDbLayerTableRecord
  2
下模座DIM
 70
     0
 62
     7
  6
Continuous
370
     9
390
F
347
2516B
  0
LAYER
  5
F778
330
2
100
AcDbSymbolTableRecord
100
AcDbLayerTableRecord
  2
模芯2
 70
     0
 62
     4
  6
Continuous
370
    25
390
F
347
2516B
  0
LAYER
  5
F779
330
2
100
AcDbSymbolTableRecord
100
AcDbLayerTableRecord
  2
模芯2DIM
 70
     0
 62
     7
  6
Continuous
370
     9
390
F
347
2516B
  0
LAYER
  5
10192
330
2
100
AcDbSymbolTableRecord
100
AcDbLayerTableRecord
  2
外推料
 70
     0
 62
     5
  6
Continuous
370
    25
390
F
347
2516B
  0
LAYER
  5
10193
330
2
100
AcDbSymbolTableRecord
100
AcDbLayerTableRecord
  2
外推料DIM
 70
     0
 62
     7
  6
Continuous
370
     9
390
F
347
2516B
  0
LAYER
  5
1B8EE
330
2
100
AcDbSymbolTableRecord
100
AcDbLayerTableRecord
  2
DEFAULT
 70
     0
 62
     7
  6
Continuous
370
    -3
390
F
347
2516B
  0
LAYER
  5
1F9D4
330
2
100
AcDbSymbolTableRecord
100
AcDbLayerTableRecord
  2
2凹模板
 70
     0
 62
     1
  6
Continuous
370
    40
390
F
347
2516B
  0
LAYER
  5
1F9D5
330
2
100
AcDbSymbolTableRecord
100
AcDbLayerTableRecord
  2
3压边板
 70
     0
 62
     3
  6
Continuous
370
    40
390
F
347
2516B
  0
LAYER
  5
1F9D6
330
2
100
AcDbSymbolTableRecord
100
AcDbLayerTableRecord
  2
6压边垫板
 70
     0
 62
     6
  6
Continuous
370
    40
390
F
347
2516B
  0
LAYER
  5
1F9D7
330
2
100
AcDbSymbolTableRecord
100
AcDbLayerTableRecord
  2
2dim
 70
     0
 62
     7
  6
Continuous
370
    13
390
F
347
2516B
  0
LAYER
  5
1F9D8
330
2
100
AcDbSymbolTableRecord
100
AcDbLayerTableRecord
  2
3dim
 70
     0
 62
     7
  6
Continuous
370
    13
390
F
347
2516B
  0
LAYER
  5
22E96
330
2
100
AcDbSymbolTableRecord
100
AcDbLayerTableRecord
  2
7模芯座
 70
     0
 62
    43
  6
Continuous
370
    40
390
F
347
2516B
  0
LAYER
  5
22E97
330
2
100
AcDbSymbolTableRecord
100
AcDbLayerTableRecord
  2
7dim
 70
     0
 62
     7
  6
Continuous
370
    13
390
F
347
2516B
  0
ENDTAB
  0
TABLE
  2
STYLE
  5
3
330
0
100
AcDbSymbolTable
 70
     4
  0
STYLE
  5
11
330
3
100
AcDbSymbolTableRecord
100
AcDbTextStyleTableRecord
  2
Standard
 70
     0
 40
0.0
 41
1.0
 50
0.0
 71
     0
 42
2.5
  3
txt
  4

  0
STYLE
  5
5BBB
330
3
100
AcDbSymbolTableRecord
100
AcDbTextStyleTableRecord
  2

 70
     1
 40
0.0
 41
1.0
 50
0.0
 71
     0
 42
2.5
  3
ltypeshp.shx
  4

  0
STYLE
  5
1B8EF
330
3
100
AcDbSymbolTableRecord
100
AcDbTextStyleTableRecord
  2
arial_ttf
 70
     0
 40
0.0
 41
1.0
 50
0.0
 71
     0
 42
0.2
  3
ARIAL.TTF
  4

1001
ACAD
1000
Arial
1071
    34306
  0
STYLE
  5
25239
330
3
100
AcDbSymbolTableRecord
100
AcDbTextStyleTableRecord
  2
NewTextStyle_0
 70
     0
 40
39.75765188704034
 41
1.0
 50
0.0
 71
     0
 42
2.5
  3
arialuni.ttf
  4

1001
ACAD
1000
Arial Unicode MS
1071
        0
  0
ENDTAB
  0
TABLE
  2
VIEW
  5
6
330
0
100
AcDbSymbolTable
 70
     0
  0
ENDTAB
  0
TABLE
  2
UCS
  5
7
330
0
100
AcDbSymbolTable
 70
     0
  0
ENDTAB
  0
TABLE
  2
APPID
  5
9
330
0
100
AcDbSymbolTable
 70
     2
  0
APPID
  5
12
330
9
100
AcDbSymbolTableRecord
100
AcDbRegAppTableRecord
  2
ACAD
 70
     0
  0
APPID
  5
5388
330
9
100
AcDbSymbolTableRecord
100
AcDbRegAppTableRecord
  2
DCO15
 70
     0
  0
ENDTAB
  0
TABLE
  2
DIMSTYLE
  5
A
330
0
100
AcDbSymbolTable
 70
     2
100
AcDbDimStyleTable
 71
     1
340
27
  0
DIMSTYLE
105
27
102
{ACAD_REACTORS
330
1A402
330
1A3F2
330
1A40E
330
1A40B
330
1A409
330
1A41E
330
1A3DA
330
1A50C
330
1A4F4
330
1A536
330
1F141
330
1F125
330
1F0DB
330
1F10D
330
1F0F5
330
23514
330
23517
330
2351A
330
2351D
330
23525
330
23528
330
2352B
330
2352E
330
23531
330
23534
330
23537
102
}
330
A
100
AcDbSymbolTableRecord
100
AcDbDimStyleTableRecord
  2
ISO-25
 70
     0
 41
2.0
 42
1.0
 43
3.75
 44
1.25
 73
     0
 74
     0
 77
     1
 78
     8
140
3.0
141
2.5
143
0.03937007874016
147
5.0
171
     3
172
     1
271
     2
272
     2
274
     3
278
    44
283
     0
284
     8
340
11
  0
DIMSTYLE
105
4350
330
A
100
AcDbSymbolTableRecord
100
AcDbDimStyleTableRecord
  2
Standard
 70
     0
 41
13.0
 42
5.0
 43
2.0
 44
5.0
 73
     0
 74
     0
 77
     1
 78
    12
 79
     3
140
20.0
141
4.0
147
4.0
179
     2
340
11
  0
ENDTAB
  0
TABLE
  2
BLOCK_RECORD
  5
1
330
0
100
AcDbSymbolTable
 70
    30
  0
BLOCK_RECORD
  5
1F
330
1
100
AcDbSymbolTableRecord
100
AcDbBlockTableRecord
  2
*Model_Space
340
22
 70
     0
280
     1
281
     0
  0
BLOCK_RECORD
  5
50
330
1
100
AcDbSymbolTableRecord
100
AcDbBlockTableRecord
  2
*Paper_Space
340
51
 70
     0
280
     1
281
     0
  0
BLOCK_RECORD
  5
55
330
1
100
AcDbSymbolTableRecord
100
AcDbBlockTableRecord
  2
*Paper_Space0
340
56
 70
     0
280
     1
281
     0
  0
BLOCK_RECORD
  5
1A432
330
1
100
AcDbSymbolTableRecord
100
AcDbBlockTableRecord
  2
*D1
340
0
 70
     0
280
     1
281
     0
  0
BLOCK_RECORD
  5
1A452
330
1
100
AcDbSymbolTableRecord
100
AcDbBlockTableRecord
  2
*D2
340
0
 70
     0
280
     1
281
     0
  0
BLOCK_RECORD
  5
1A45E
330
1
100
AcDbSymbolTableRecord
100
AcDbBlockTableRecord
  2
*D3
340
0
 70
     0
280
     1
281
     0
  0
BLOCK_RECORD
  5
1A478
330
1
100
AcDbSymbolTableRecord
100
AcDbBlockTableRecord
  2
*D4
340
0
 70
     0
280
     1
281
     0
  0
BLOCK_RECORD
  5
1A480
330
1
100
AcDbSymbolTableRecord
100
AcDbBlockTableRecord
  2
*D5
340
0
 70
     0
280
     1
281
     0
  0
BLOCK_RECORD
  5
1A49D
330
1
100
AcDbSymbolTableRecord
100
AcDbBlockTableRecord
  2
*D6
340
0
 70
     0
280
     1
281
     0
  0
BLOCK_RECORD
  5
1A4CD
330
1
100
AcDbSymbolTableRecord
100
AcDbBlockTableRecord
  2
*D7
340
0
 70
     0
280
     1
281
     0
  0
BLOCK_RECORD
  5
1A4F5
330
1
100
AcDbSymbolTableRecord
100
AcDbBlockTableRecord
  2
*D8
340
0
 70
     0
280
     1
281
     0
  0
BLOCK_RECORD
  5
1A50D
330
1
100
AcDbSymbolTableRecord
100
AcDbBlockTableRecord
  2
*D9
340
0
 70
     0
280
     1
281
     0
  0
BLOCK_RECORD
  5
1A537
330
1
100
AcDbSymbolTableRecord
100
AcDbBlockTableRecord
  2
*D10
340
0
 70
     0
280
     1
281
     0
  0
BLOCK_RECORD
  5
1B8EA
330
1
100
AcDbSymbolTableRecord
100
AcDbBlockTableRecord
  2
SE13
340
0
102
{BLKREFS
331
2357C
331
23591
102
}
 70
     0
280
     1
281
     0
  0
BLOCK_RECORD
  5
1F0DC
330
1
100
AcDbSymbolTableRecord
100
AcDbBlockTableRecord
  2
*D12
340
0
 70
     0
280
     1
281
     0
  0
BLOCK_RECORD
  5
1F0F6
330
1
100
AcDbSymbolTableRecord
100
AcDbBlockTableRecord
  2
*D13
340
0
 70
     0
280
     1
281
     0
  0
BLOCK_RECORD
  5
1F10E
330
1
100
AcDbSymbolTableRecord
100
AcDbBlockTableRecord
  2
*D14
340
0
 70
     0
280
     1
281
     0
  0
BLOCK_RECORD
  5
1F126
330
1
100
AcDbSymbolTableRecord
100
AcDbBlockTableRecord
  2
*D15
340
0
 70
     0
280
     1
281
     0
  0
BLOCK_RECORD
  5
1F142
330
1
100
AcDbSymbolTableRecord
100
AcDbBlockTableRecord
  2
*D16
340
0
 70
     0
280
     1
281
     0
  0
BLOCK_RECORD
  5
20833
330
1
100
AcDbSymbolTableRecord
100
AcDbBlockTableRecord
  2
A$C25B06599
340
0
 70
     0
280
     1
281
     0
  0
BLOCK_RECORD
  5
23496
330
1
100
AcDbSymbolTableRecord
100
AcDbBlockTableRecord
  2
*D18
340
0
 70
     0
280
     1
281
     0
  0
BLOCK_RECORD
  5
234A4
330
1
100
AcDbSymbolTableRecord
100
AcDbBlockTableRecord
  2
*D19
340
0
 70
     0
280
     1
281
     0
  0
BLOCK_RECORD
  5
234B0
330
1
100
AcDbSymbolTableRecord
100
AcDbBlockTableRecord
  2
*D20
340
0
 70
     0
280
     1
281
     0
  0
BLOCK_RECORD
  5
234BC
330
1
100
AcDbSymbolTableRecord
100
AcDbBlockTableRecord
  2
*D21
340
0
 70
     0
280
     1
281
     0
  0
BLOCK_RECORD
  5
234C5
330
1
100
AcDbSymbolTableRecord
100
AcDbBlockTableRecord
  2
*D22
340
0
 70
     0
280
     1
281
     0
  0
BLOCK_RECORD
  5
234D1
330
1
100
AcDbSymbolTableRecord
100
AcDbBlockTableRecord
  2
*D23
340
0
 70
     0
280
     1
281
     0
  0
BLOCK_RECORD
  5
234DC
330
1
100
AcDbSymbolTableRecord
100
AcDbBlockTableRecord
  2
*D24
340
0
 70
     0
280
     1
281
     0
  0
BLOCK_RECORD
  5
234E5
330
1
100
AcDbSymbolTableRecord
100
AcDbBlockTableRecord
  2
*D25
340
0
 70
     0
280
     1
281
     0
  0
BLOCK_RECORD
  5
234F1
330
1
100
AcDbSymbolTableRecord
100
AcDbBlockTableRecord
  2
*D26
340
0
 70
     0
280
     1
281
     0
  0
BLOCK_RECORD
  5
234FD
330
1
100
AcDbSymbolTableRecord
100
AcDbBlockTableRecord
  2
*D27
340
0
 70
     0
280
     1
281
     0
  0
BLOCK_RECORD
  5
2350B
330
1
100
AcDbSymbolTableRecord
100
AcDbBlockTableRecord
  2
*D28
340
0
 70
     0
280
     1
281
     0
  0
BLOCK_RECORD
  5
23513
330
1
100
AcDbSymbolTableRecord
100
AcDbBlockTableRecord
  2
A$C28E869B6
340
0
 70
     0
280
     1
281
     0
  0
ENDTAB
  0
ENDSEC
  0
SECTION
  2
BLOCKS
  0
BLOCK
  5
20
330
1F
100
AcDbEntity
  8
0
100
AcDbBlockBegin
  2
*Model_Space
 70
     0
 10
0.0
 20
0.0
 30
0.0
  3
*Model_Space
  1

  0
ENDBLK
  5
21
330
1F
100
AcDbEntity
  8
0
100
AcDbBlockEnd
  0
BLOCK
  5
52
330
50
100
AcDbEntity
 67
     1
  8
0
100
AcDbBlockBegin
  2
*Paper_Space
 70
     0
 10
0.0
 20
0.0
 30
0.0
  3
*Paper_Space
  1

  0
ENDBLK
  5
53
330
50
100
AcDbEntity
 67
     1
  8
0
100
AcDbBlockEnd
  0
BLOCK
  5
57
330
55
100
AcDbEntity
 67
     1
  8
0
100
AcDbBlockBegin
  2
*Paper_Space0
 70
     0
 10
0.0
 20
0.0
 30
0.0
  3
*Paper_Space0
  1

  0
ENDBLK
  5
58
330
55
100
AcDbEntity
 67
     1
  8
0
100
AcDbBlockEnd
  0
BLOCK
  5
1A438
330
1A432
100
AcDbEntity
  8
0
100
AcDbBlockBegin
  2
*D1
 70
     1
 10
0.0
 20
0.0
 30
0.0
  3
*D1
  1

  0
LINE
  5
251DD
330
1A432
100
AcDbEntity
  8
DIM
 62
     0
370
    -2
100
AcDbLine
 10
-26791.08490742276
 20
593.3174489349749
 30
0.0
 11
-26927.46659049267
 21
483.0219331292282
 31
0.0
  0
MTEXT
  5
251DE
330
1A432
100
AcDbEntity
  8
DIM
 62
     0
100
AcDbMText
 10
-26849.73435011523
 20
566.6057064946597
 30
0.0
 40
20.0
 41
0.0
 46
0.0
 71
     5
 72
     1
  1
4-R25(1")
  7
arial_ttf
 11
0.7775478633116184
 21
0.6288237592994851
 31
0.0
 73
     1
 44
1.0
  0
SOLID
  5
251DF
330
1A432
100
AcDbEntity
  8
DIM
 62
     0
100
AcDbTrace
 10
-26928.5146300915
 20
484.3178462347496
 30
0.0
 11
-26926.41855089384
 21
481.7260200237087
 31
0.0
 12
-26935.24206912579
 22
476.7336955362333
 32
0.0
 13
-26935.24206912579
 23
476.7336955362333
 33
0.0
  0
POINT
  5
251E0
330
1A432
100
AcDbEntity
  8
Defpoints
 62
     0
100
AcDbPoint
 10
-26935.24206912579
 20
476.7336955362333
 30
0.0
  0
POINT
  5
251E1
330
1A432
100
AcDbEntity
  8
Defpoints
 62
     0
100
AcDbPoint
 10
-26914.87031510702
 20
493.20887802988
 30
0.0
  0
ENDBLK
  5
1A439
330
1A432
100
AcDbEntity
  8
0
100
AcDbBlockEnd
  0
BLOCK
  5
1A45C
330
1A452
100
AcDbEntity
  8
0
100
AcDbBlockBegin
  2
*D2
 70
     1
 10
0.0
 20
0.0
 30
0.0
  3
*D2
  1

  0
LINE
  5
251EC
330
1A452
100
AcDbEntity
  8
DIM
 62
     0
370
    -2
100
AcDbLine
 10
-26433.27031510702
 20
467.0088780298782
 30
0.0
 11
-26302.40869102314
 21
467.0088780298782
 31
0.0
  0
LINE
  5
251ED
330
1A452
100
AcDbEntity
  8
DIM
 62
     0
370
    -2
100
AcDbLine
 10
-26433.27031510702
 20
873.0088780298766
 30
0.0
 11
-26302.40869102314
 21
873.0088780298764
 31
0.0
  0
LINE
  5
251EE
330
1A452
100
AcDbEntity
  8
DIM
 62
     0
370
    -2
100
AcDbLine
 10
-26303.65869102314
 20
477.0088780298784
 30
0.0
 11
-26303.65869102314
 21
863.0088780298764
 31
0.0
  0
SOLID
  5
251EF
330
1A452
100
AcDbEntity
  8
DIM
 62
     0
100
AcDbTrace
 10
-26305.32535768981
 20
477.0088780298784
 30
0.0
 11
-26301.99202435647
 21
477.0088780298784
 31
0.0
 12
-26303.65869102314
 22
467.0088780298782
 32
0.0
 13
-26303.65869102314
 23
467.0088780298782
 33
0.0
  0
SOLID
  5
251F0
330
1A452
100
AcDbEntity
  8
DIM
 62
     0
100
AcDbTrace
 10
-26305.32535768981
 20
863.0088780298764
 30
0.0
 11
-26301.99202435647
 21
863.0088780298764
 31
0.0
 12
-26303.65869102314
 22
873.0088780298764
 32
0.0
 13
-26303.65869102314
 23
873.0088780298764
 33
0.0
  0
MTEXT
  5
251F1
330
1A452
100
AcDbEntity
  8
DIM
 62
     0
100
AcDbMText
 10
-26319.76919579804
 20
670.0088780298731
 30
0.0
 40
20.0
 41
0.0
 46
0.0
 71
     5
 72
     1
  1
406(16")
  7
arial_ttf
 11
0.0000000000000001
 21
1.0
 31
0.0
 73
     1
 44
1.0
  0
POINT
  5
251F2
330
1A452
100
AcDbEntity
  8
Defpoints
 62
     0
100
AcDbPoint
 10
-26434.27031510702
 20
467.0088780298782
 30
0.0
  0
POINT
  5
251F3
330
1A452
100
AcDbEntity
  8
Defpoints
 62
     0
100
AcDbPoint
 10
-26434.27031510702
 20
873.0088780298766
 30
0.0
  0
POINT
  5
251F4
330
1A452
100
AcDbEntity
  8
Defpoints
 62
     0
100
AcDbPoint
 10
-26303.65869102314
 20
873.0088780298764
 30
0.0
  0
ENDBLK
  5
1A45D
330
1A452
100
AcDbEntity
  8
0
100
AcDbBlockEnd
  0
BLOCK
  5
1A468
330
1A45E
100
AcDbEntity
  8
0
100
AcDbBlockBegin
  2
*D3
 70
     1
 10
0.0
 20
0.0
 30
0.0
  3
*D3
  1

  0
LINE
  5
251D4
330
1A45E
100
AcDbEntity
  8
DIM
 62
     0
370
    -2
100
AcDbLine
 10
-26941.07031510702
 20
492.2088780298771
 30
0.0
 11
-26941.07031510702
 21
365.2565472468532
 31
0.0
  0
LINE
  5
251D5
330
1A45E
100
AcDbEntity
  8
DIM
 62
     0
370
    -2
100
AcDbLine
 10
-26408.07031510702
 20
492.2088780298771
 30
0.0
 11
-26408.07031510702
 21
365.2565472468532
 31
0.0
  0
LINE
  5
251D6
330
1A45E
100
AcDbEntity
  8
DIM
 62
     0
370
    -2
100
AcDbLine
 10
-26931.07031510701
 20
366.5065472468532
 30
0.0
 11
-26418.07031510702
 21
366.5065472468532
 31
0.0
  0
SOLID
  5
251D7
330
1A45E
100
AcDbEntity
  8
DIM
 62
     0
100
AcDbTrace
 10
-26931.07031510701
 20
368.1732139135199
 30
0.0
 11
-26931.07031510701
 21
364.8398805801865
 31
0.0
 12
-26941.07031510702
 22
366.5065472468532
 32
0.0
 13
-26941.07031510702
 23
366.5065472468532
 33
0.0
  0
SOLID
  5
251D8
330
1A45E
100
AcDbEntity
  8
DIM
 62
     0
100
AcDbTrace
 10
-26418.07031510702
 20
368.1732139135199
 30
0.0
 11
-26418.07031510702
 21
364.8398805801865
 31
0.0
 12
-26408.07031510702
 22
366.5065472468532
 32
0.0
 13
-26408.07031510702
 23
366.5065472468532
 33
0.0
  0
MTEXT
  5
251D9
330
1A45E
100
AcDbEntity
  8
DIM
 62
     0
100
AcDbMText
 10
-26674.57031510702
 20
382.6170520217509
 30
0.0
 40
20.0
 41
0.0
 46
0.0
 71
     5
 72
     1
  1
533(21")
  7
arial_ttf
 73
     1
 44
1.0
  0
POINT
  5
251DA
330
1A45E
100
AcDbEntity
  8
Defpoints
 62
     0
100
AcDbPoint
 10
-26941.07031510702
 20
493.2088780298771
 30
0.0
  0
POINT
  5
251DB
330
1A45E
100
AcDbEntity
  8
Defpoints
 62
     0
100
AcDbPoint
 10
-26408.07031510702
 20
493.2088780298771
 30
0.0
  0
POINT
  5
251DC
330
1A45E
100
AcDbEntity
  8
Defpoints
 62
     0
100
AcDbPoint
 10
-26408.07031510702
 20
366.5065472468532
 30
0.0
  0
ENDBLK
  5
1A469
330
1A45E
100
AcDbEntity
  8
0
100
AcDbBlockEnd
  0
BLOCK
  5
1A47E
330
1A478
100
AcDbEntity
  8
0
100
AcDbBlockBegin
  2
*D4
 70
     1
 10
0.0
 20
0.0
 30
0.0
  3
*D4
  1

  0
LINE
  5
251F5
330
1A478
100
AcDbEntity
  8
DIM
 62
     0
370
    -2
100
AcDbLine
 10
-26854.78363615359
 20
1152.605790236181
 30
0.0
 11
-26919.78266706586
 21
1096.993503870946
 31
0.0
  0
MTEXT
  5
251F6
330
1A478
100
AcDbEntity
  8
DIM
 62
     0
100
AcDbMText
 10
-26891.65308902457
 20
1137.949695245372
 30
0.0
 40
15.0
 41
0.0
 46
0.0
 71
     5
 72
     1
  1
R25(1")
  7
arial_ttf
 11
0.7598406720362818
 21
0.6501093393571975
 31
0.0
 73
     1
 44
1.0
  0
SOLID
  5
251F7
330
1A478
100
AcDbEntity
  8
DIM
 62
     0
100
AcDbTrace
 10
-26920.32442484866
 20
1097.626704430975
 30
0.0
 11
-26919.24090928306
 21
1096.360303310915
 31
0.0
 12
-26923.58187042604
 22
1093.742957174159
 32
0.0
 13
-26923.58187042604
 23
1093.742957174159
 33
0.0
  0
POINT
  5
251F8
330
1A478
100
AcDbEntity
  8
Defpoints
 62
     0
100
AcDbPoint
 10
-26923.58187042604
 20
1093.742957174159
 30
0.0
  0
POINT
  5
251F9
330
1A478
100
AcDbEntity
  8
Defpoints
 62
     0
100
AcDbPoint
 10
-26904.58585362516
 20
1109.995690658068
 30
0.0
  0
ENDBLK
  5
1A47F
330
1A478
100
AcDbEntity
  8
0
100
AcDbBlockEnd
  0
BLOCK
  5
1A48A
330
1A480
100
AcDbEntity
  8
0
100
AcDbBlockBegin
  2
*D5
 70
     1
 10
0.0
 20
0.0
 30
0.0
  3
*D5
  1

  0
LINE
  5
251FA
330
1A480
100
AcDbEntity
  8
DIM
 62
     0
370
    -2
100
AcDbLine
 10
-26969.57031510702
 20
1305.548834808182
 30
0.0
 11
-27050.62573907645
 21
1305.548834808182
 31
0.0
  0
LINE
  5
251FB
330
1A480
100
AcDbEntity
  8
DIM
 62
     0
370
    -2
100
AcDbLine
 10
-26732.44094440975
 20
1077.548834808182
 30
0.0
 11
-27050.62573907645
 21
1077.548834808182
 31
0.0
  0
LINE
  5
251FC
330
1A480
100
AcDbEntity
  8
DIM
 62
     0
370
    -2
100
AcDbLine
 10
-27049.37573907645
 20
1295.548834808182
 30
0.0
 11
-27049.37573907645
 21
1087.548834808182
 31
0.0
  0
SOLID
  5
251FD
330
1A480
100
AcDbEntity
  8
DIM
 62
     0
100
AcDbTrace
 10
-27051.04240574311
 20
1295.548834808182
 30
0.0
 11
-27047.70907240978
 21
1295.548834808182
 31
0.0
 12
-27049.37573907645
 22
1305.548834808182
 32
0.0
 13
-27049.37573907645
 23
1305.548834808182
 33
0.0
  0
SOLID
  5
251FE
330
1A480
100
AcDbEntity
  8
DIM
 62
     0
100
AcDbTrace
 10
-27051.04240574311
 20
1087.548834808182
 30
0.0
 11
-27047.70907240978
 21
1087.548834808182
 31
0.0
 12
-27049.37573907645
 22
1077.548834808182
 32
0.0
 13
-27049.37573907645
 23
1077.548834808182
 33
0.0
  0
MTEXT
  5
251FF
330
1A480
100
AcDbEntity
  8
DIM
 62
     0
100
AcDbMText
 10
-27065.48624385134
 20
1191.548834808178
 30
0.0
 40
20.0
 41
0.0
 46
0.0
 71
     5
 72
     1
  1
228(9")
  7
arial_ttf
 11
0.0000000000000001
 21
1.0
 31
0.0
 73
     1
 44
1.0
  0
POINT
  5
25200
330
1A480
100
AcDbEntity
  8
Defpoints
 62
     0
100
AcDbPoint
 10
-26968.57031510702
 20
1305.548834808182
 30
0.0
  0
POINT
  5
25201
330
1A480
100
AcDbEntity
  8
Defpoints
 62
     0
100
AcDbPoint
 10
-26731.44094440975
 20
1077.548834808182
 30
0.0
  0
POINT
  5
25202
330
1A480
100
AcDbEntity
  8
Defpoints
 62
     0
100
AcDbPoint
 10
-27049.37573907645
 20
1077.548834808182
 30
0.0
  0
ENDBLK
  5
1A48B
330
1A480
100
AcDbEntity
  8
0
100
AcDbBlockEnd
  0
BLOCK
  5
1A4A7
330
1A49D
100
AcDbEntity
  8
0
100
AcDbBlockBegin
  2
*D6
 70
     1
 10
0.0
 20
0.0
 30
0.0
  3
*D6
  1

  0
LINE
  5
251E2
330
1A49D
100
AcDbEntity
  8
DIM
 62
     0
370
    -2
100
AcDbLine
 10
-26613.57031510702
 20
745.0088780298727
 30
0.0
 11
-26563.04592239421
 21
745.0088780298727
 31
0.0
  0
LINE
  5
251E3
330
1A49D
100
AcDbEntity
  8
DIM
 62
     0
370
    -2
100
AcDbLine
 10
-26673.57031510702
 20
670.0088780298754
 30
0.0
 11
-26563.04592239421
 21
670.0088780298754
 31
0.0
  0
LINE
  5
251E4
330
1A49D
100
AcDbEntity
  8
DIM
 62
     0
370
    -2
100
AcDbLine
 10
-26564.29592239421
 20
735.0088780298729
 30
0.0
 11
-26564.29592239421
 21
680.0088780298754
 31
0.0
  0
LINE
  5
251E5
330
1A49D
100
AcDbEntity
  8
DIM
 62
     0
370
    -2
100
AcDbLine
 10
-26564.29592239421
 20
670.0088780298754
 30
0.0
 11
-26564.29592239421
 21
581.1985096806258
 31
0.0
  0
SOLID
  5
251E6
330
1A49D
100
AcDbEntity
  8
DIM
 62
     0
100
AcDbTrace
 10
-26565.96258906088
 20
735.0088780298729
 30
0.0
 11
-26562.62925572755
 21
735.0088780298729
 31
0.0
 12
-26564.29592239421
 22
745.0088780298727
 32
0.0
 13
-26564.29592239421
 23
745.0088780298727
 33
0.0
  0
SOLID
  5
251E7
330
1A49D
100
AcDbEntity
  8
DIM
 62
     0
100
AcDbTrace
 10
-26565.96258906088
 20
680.0088780298754
 30
0.0
 11
-26562.62925572755
 21
680.0088780298754
 31
0.0
 12
-26564.29592239421
 22
670.0088780298754
 32
0.0
 13
-26564.29592239421
 23
670.0088780298754
 33
0.0
  0
MTEXT
  5
251E8
330
1A49D
100
AcDbEntity
  8
DIM
 62
     0
100
AcDbMText
 10
-26580.40642716911
 20
620.6036938552463
 30
0.0
 40
20.0
 41
0.0
 46
0.0
 71
     5
 72
     1
  1
75(3")
  7
arial_ttf
 11
0.0000000000000001
 21
1.0
 31
0.0
 73
     1
 44
1.0
  0
POINT
  5
251E9
330
1A49D
100
AcDbEntity
  8
Defpoints
 62
     0
100
AcDbPoint
 10
-26614.57031510702
 20
745.0088780298727
 30
0.0
  0
POINT
  5
251EA
330
1A49D
100
AcDbEntity
  8
Defpoints
 62
     0
100
AcDbPoint
 10
-26674.57031510702
 20
670.0088780298754
 30
0.0
  0
POINT
  5
251EB
330
1A49D
100
AcDbEntity
  8
Defpoints
 62
     0
100
AcDbPoint
 10
-26564.29592239421
 20
670.0088780298754
 30
0.0
  0
ENDBLK
  5
1A4A8
330
1A49D
100
AcDbEntity
  8
0
100
AcDbBlockEnd
  0
BLOCK
  5
1A4D3
330
1A4CD
100
AcDbEntity
  8
0
100
AcDbBlockBegin
  2
*D7
 70
     1
 10
0.0
 20
0.0
 30
0.0
  3
*D7
  1

  0
LINE
  5
25203
330
1A4CD
100
AcDbEntity
  8
DIM
 62
     0
370
    -2
100
AcDbLine
 10
-27011.01670071973
 20
1161.950961429136
 30
0.0
 11
-26947.39275315765
 21
1294.936381604491
 31
0.0
  0
MTEXT
  5
25204
330
1A4CD
100
AcDbEntity
  8
DIM
 62
     0
100
AcDbMText
 10
-26999.34932317507
 20
1223.667149682038
 30
0.0
 40
20.0
 41
0.0
 46
0.0
 71
     5
 72
     1
  1
R4(0.15")
  7
arial_ttf
 11
0.4315781864899815
 21
0.9020755339471408
 31
0.0
 73
     1
 44
1.0
  0
SOLID
  5
25205
330
1A4CD
100
AcDbEntity
  8
DIM
 62
     0
100
AcDbTrace
 10
-26948.8962123809
 20
1295.655678581975
 30
0.0
 11
-26945.8892939344
 21
1294.217084627009
 31
0.0
 12
-26943.07697129275
 22
1303.957136943963
 32
0.0
 13
-26943.07697129275
 23
1303.957136943963
 33
0.0
  0
POINT
  5
25206
330
1A4CD
100
AcDbEntity
  8
Defpoints
 62
     0
100
AcDbPoint
 10
-26943.07697129275
 20
1303.957136943963
 30
0.0
  0
POINT
  5
25207
330
1A4CD
100
AcDbEntity
  8
Defpoints
 62
     0
100
AcDbPoint
 10
-26944.8032840387
 20
1300.348834808192
 30
0.0
  0
ENDBLK
  5
1A4D4
330
1A4CD
100
AcDbEntity
  8
0
100
AcDbBlockEnd
  0
BLOCK
  5
1A4FF
330
1A4F5
100
AcDbEntity
  8
0
100
AcDbBlockBegin
  2
*D8
 70
     1
 10
0.0
 20
0.0
 30
0.0
  3
*D8
  1

  0
LINE
  5
251CB
330
1A4F5
100
AcDbEntity
  8
DIM
 62
     0
370
    -2
100
AcDbLine
 10
-26380.57031510701
 20
490.508878029876
 30
0.0
 11
-26380.57031510701
 21
286.7338308559629
 31
0.0
  0
LINE
  5
251CC
330
1A4F5
100
AcDbEntity
  8
DIM
 62
     0
370
    -2
100
AcDbLine
 10
-26968.57031510702
 20
490.508878029876
 30
0.0
 11
-26968.57031510702
 21
286.7338308559629
 31
0.0
  0
LINE
  5
251CD
330
1A4F5
100
AcDbEntity
  8
DIM
 62
     0
370
    -2
100
AcDbLine
 10
-26390.57031510702
 20
287.9838308559629
 30
0.0
 11
-26958.57031510702
 21
287.9838308559629
 31
0.0
  0
SOLID
  5
251CE
330
1A4F5
100
AcDbEntity
  8
DIM
 62
     0
100
AcDbTrace
 10
-26390.57031510702
 20
289.6504975226296
 30
0.0
 11
-26390.57031510702
 21
286.3171641892962
 31
0.0
 12
-26380.57031510701
 22
287.9838308559629
 32
0.0
 13
-26380.57031510701
 23
287.9838308559629
 33
0.0
  0
SOLID
  5
251CF
330
1A4F5
100
AcDbEntity
  8
DIM
 62
     0
100
AcDbTrace
 10
-26958.57031510702
 20
289.6504975226296
 30
0.0
 11
-26958.57031510702
 21
286.3171641892962
 31
0.0
 12
-26968.57031510702
 22
287.9838308559629
 32
0.0
 13
-26968.57031510702
 23
287.9838308559629
 33
0.0
  0
MTEXT
  5
251D0
330
1A4F5
100
AcDbEntity
  8
DIM
 62
     0
100
AcDbMText
 10
-26674.57031510702
 20
304.0943356308607
 30
0.0
 40
20.0
 41
0.0
 46
0.0
 71
     5
 72
     1
  1
588(23")
  7
arial_ttf
 73
     1
 44
1.0
  0
POINT
  5
251D1
330
1A4F5
100
AcDbEntity
  8
Defpoints
 62
     0
100
AcDbPoint
 10
-26380.57031510701
 20
491.508878029876
 30
0.0
  0
POINT
  5
251D2
330
1A4F5
100
AcDbEntity
  8
Defpoints
 62
     0
100
AcDbPoint
 10
-26968.57031510702
 20
491.508878029876
 30
0.0
  0
POINT
  5
251D3
330
1A4F5
100
AcDbEntity
  8
Defpoints
 62
     0
100
AcDbPoint
 10
-26968.57031510702
 20
287.9838308559629
 30
0.0
  0
ENDBLK
  5
1A500
330
1A4F5
100
AcDbEntity
  8
0
100
AcDbBlockEnd
  0
BLOCK
  5
1A517
330
1A50D
100
AcDbEntity
  8
0
100
AcDbBlockBegin
  2
*D9
 70
     1
 10
0.0
 20
0.0
 30
0.0
  3
*D9
  1

  0
LINE
  5
251C2
330
1A50D
100
AcDbEntity
  8
DIM
 62
     0
370
    -2
100
AcDbLine
 10
-26431.57031510702
 20
439.5088780298766
 30
0.0
 11
-26223.47169398542
 21
439.5088780298764
 31
0.0
  0
LINE
  5
251C3
330
1A50D
100
AcDbEntity
  8
DIM
 62
     0
370
    -2
100
AcDbLine
 10
-26431.57031510701
 20
900.5088780298736
 30
0.0
 11
-26223.47169398542
 21
900.5088780298736
 31
0.0
  0
LINE
  5
251C4
330
1A50D
100
AcDbEntity
  8
DIM
 62
     0
370
    -2
100
AcDbLine
 10
-26224.72169398542
 20
449.5088780298765
 30
0.0
 11
-26224.72169398542
 21
890.5088780298736
 31
0.0
  0
SOLID
  5
251C5
330
1A50D
100
AcDbEntity
  8
DIM
 62
     0
100
AcDbTrace
 10
-26226.38836065209
 20
449.5088780298765
 30
0.0
 11
-26223.05502731875
 21
449.5088780298765
 31
0.0
 12
-26224.72169398542
 22
439.5088780298764
 32
0.0
 13
-26224.72169398542
 23
439.5088780298764
 33
0.0
  0
SOLID
  5
251C6
330
1A50D
100
AcDbEntity
  8
DIM
 62
     0
100
AcDbTrace
 10
-26226.38836065209
 20
890.5088780298736
 30
0.0
 11
-26223.05502731875
 21
890.5088780298736
 31
0.0
 12
-26224.72169398542
 22
900.5088780298736
 32
0.0
 13
-26224.72169398542
 23
900.5088780298736
 33
0.0
  0
MTEXT
  5
251C7
330
1A50D
100
AcDbEntity
  8
DIM
 62
     0
100
AcDbMText
 10
-26240.83219876032
 20
670.0088780298707
 30
0.0
 40
20.0
 41
0.0
 46
0.0
 71
     5
 72
     1
  1
461(18")
  7
arial_ttf
 11
0.0000000000000001
 21
1.0
 31
0.0
 73
     1
 44
1.0
  0
POINT
  5
251C8
330
1A50D
100
AcDbEntity
  8
Defpoints
 62
     0
100
AcDbPoint
 10
-26432.57031510702
 20
439.5088780298766
 30
0.0
  0
POINT
  5
251C9
330
1A50D
100
AcDbEntity
  8
Defpoints
 62
     0
100
AcDbPoint
 10
-26432.57031510701
 20
900.5088780298736
 30
0.0
  0
POINT
  5
251CA
330
1A50D
100
AcDbEntity
  8
Defpoints
 62
     0
100
AcDbPoint
 10
-26224.72169398542
 20
900.5088780298736
 30
0.0
  0
ENDBLK
  5
1A518
330
1A50D
100
AcDbEntity
  8
0
100
AcDbBlockEnd
  0
BLOCK
  5
1A53E
330
1A537
100
AcDbEntity
  8
0
100
AcDbBlockBegin
  2
*D10
 70
     1
 10
0.0
 20
0.0
 30
0.0
  3
*D10
  1

  0
LINE
  5
251BC
330
1A537
100
AcDbEntity
  8
DIM
 62
     0
370
    -2
100
AcDbLine
 10
-27056.85121082596
 20
986.5353084989946
 30
0.0
 11
-26960.76462227939
 21
891.9929350341844
 31
0.0
  0
MTEXT
  5
251BD
330
1A537
100
AcDbEntity
  8
DIM
 62
     0
100
AcDbMText
 10
-27001.07277829238
 20
954.2546521173242
 30
0.0
 40
20.0
 41
0.0
 46
0.0
 71
     5
 72
     1
  1
4-R52(2")
  7
arial_ttf
 11
0.7128114060059902
 21
-0.7013557581340325
 31
0.0
 73
     1
 44
1.0
  0
LINE
  5
251BE
330
1A537
100
AcDbEntity
  8
DIM
 62
     0
370
    -2
100
AcDbLine
 10
-26916.57031510702
 20
848.5088780298791
 30
0.0
 11
-26953.63650821932
 21
884.9793774528443
 31
0.0
  0
SOLID
  5
251BF
330
1A537
100
AcDbEntity
  8
DIM
 62
     0
100
AcDbTrace
 10
-26959.59569601583
 20
893.1809540441955
 30
0.0
 11
-26961.93354854294
 21
890.8049160241734
 31
0.0
 12
-26953.63650821932
 22
884.9793774528443
 32
0.0
 13
-26953.63650821932
 23
884.9793774528443
 33
0.0
  0
POINT
  5
251C0
330
1A537
100
AcDbEntity
  8
Defpoints
 62
     0
100
AcDbPoint
 10
-26953.63650821932
 20
884.9793774528443
 30
0.0
  0
POINT
  5
251C1
330
1A537
100
AcDbEntity
  8
Defpoints
 62
     0
100
AcDbPoint
 10
-26916.57031510702
 20
848.5088780298791
 30
0.0
  0
ENDBLK
  5
1A53F
330
1A537
100
AcDbEntity
  8
0
100
AcDbBlockEnd
  0
BLOCK
  5
1B8EB
330
1B8EA
100
AcDbEntity
  8
DEFAULT
 62
     1
370
     0
100
AcDbBlockBegin
  2
SE13
 70
     0
 10
0.0
 20
0.0
 30
0.0
  3
SE13
  1

  0
TEXT
  5
1B8EC
330
1B8EA
100
AcDbEntity
  8
0
  6
Continuous
 62
   136
370
     0
100
AcDbText
 10
531.075280003713
 20
16.1647734594651
 30
0.0
 40
3.5
  1
 
  7
arial_ttf
 11
531.075280003713
 21
19.6647734594651
 31
0.0
100
AcDbText
 73
     3
  0
ENDBLK
  5
1B8ED
330
1B8EA
100
AcDbEntity
  8
0
 62
   136
370
     0
100
AcDbBlockEnd
  0
BLOCK
  5
1F0E7
330
1F0DC
100
AcDbEntity
  8
0
100
AcDbBlockBegin
  2
*D12
 70
     1
 10
0.0
 20
0.0
 30
0.0
  3
*D12
  1

  0
LINE
  5
251B2
330
1F0DC
100
AcDbEntity
  8
DIM
 62
     0
370
    -2
100
AcDbLine
 10
-26721.74643771058
 20
1069.348834808182
 30
0.0
 11
-26721.74643771058
 21
993.2287275548443
 31
0.0
  0
LINE
  5
251B3
330
1F0DC
100
AcDbEntity
  8
DIM
 62
     0
370
    -2
100
AcDbLine
 10
-26627.39419250346
 20
1069.348834808184
 30
0.0
 11
-26627.39419250346
 21
993.2287275548443
 31
0.0
  0
LINE
  5
251B4
330
1F0DC
100
AcDbEntity
  8
DIM
 62
     0
370
    -2
100
AcDbLine
 10
-26711.74643771058
 20
994.4787275548442
 30
0.0
 11
-26637.39419250346
 21
994.4787275548442
 31
0.0
  0
LINE
  5
251B5
330
1F0DC
100
AcDbEntity
  8
DIM
 62
     0
370
    -2
100
AcDbLine
 10
-26627.39419250346
 20
994.4787275548442
 30
0.0
 11
-26493.35872183497
 21
994.4787275548442
 31
0.0
  0
SOLID
  5
251B6
330
1F0DC
100
AcDbEntity
  8
DIM
 62
     0
100
AcDbTrace
 10
-26711.74643771058
 20
996.1453942215108
 30
0.0
 11
-26711.74643771058
 21
992.8120608881776
 31
0.0
 12
-26721.74643771058
 22
994.4787275548442
 32
0.0
 13
-26721.74643771058
 23
994.4787275548442
 33
0.0
  0
SOLID
  5
251B7
330
1F0DC
100
AcDbEntity
  8
DIM
 62
     0
100
AcDbTrace
 10
-26637.39419250346
 20
996.1453942215108
 30
0.0
 11
-26637.39419250346
 21
992.8120608881776
 31
0.0
 12
-26627.39419250346
 22
994.4787275548442
 32
0.0
 13
-26627.39419250346
 23
994.4787275548442
 33
0.0
  0
MTEXT
  5
251B8
330
1F0DC
100
AcDbEntity
  8
DIM
 62
     0
100
AcDbMText
 10
-26555.37645716921
 20
1010.787049519373
 30
0.0
 40
20.0
 41
0.0
 46
0.0
 71
     5
 72
     1
  1
%%c94(3.7")
  7
arial_ttf
 73
     1
 44
1.0
  0
POINT
  5
251B9
330
1F0DC
100
AcDbEntity
  8
Defpoints
 62
     0
100
AcDbPoint
 10
-26721.74643771058
 20
1070.348834808182
 30
0.0
  0
POINT
  5
251BA
330
1F0DC
100
AcDbEntity
  8
Defpoints
 62
     0
100
AcDbPoint
 10
-26627.39419250346
 20
1070.348834808183
 30
0.0
  0
POINT
  5
251BB
330
1F0DC
100
AcDbEntity
  8
Defpoints
 62
     0
100
AcDbPoint
 10
-26627.39419250346
 20
994.4787275548442
 30
0.0
  0
ENDBLK
  5
1F0E8
330
1F0DC
100
AcDbEntity
  8
0
100
AcDbBlockEnd
  0
BLOCK
  5
1F100
330
1F0F6
100
AcDbEntity
  8
0
100
AcDbBlockBegin
  2
*D13
 70
     1
 10
0.0
 20
0.0
 30
0.0
  3
*D13
  1

  0
LINE
  5
251A8
330
1F0F6
100
AcDbEntity
  8
DIM
 62
     0
370
    -2
100
AcDbLine
 10
-26731.57031510701
 20
1075.548834808182
 30
0.0
 11
-26731.57031510701
 21
1113.613399567431
 31
0.0
  0
LINE
  5
251A9
330
1F0F6
100
AcDbEntity
  8
DIM
 62
     0
370
    -2
100
AcDbLine
 10
-26617.57031510702
 20
1075.548834808182
 30
0.0
 11
-26617.57031510702
 21
1113.613399567431
 31
0.0
  0
LINE
  5
251AA
330
1F0F6
100
AcDbEntity
  8
DIM
 62
     0
370
    -2
100
AcDbLine
 10
-26721.57031510701
 20
1112.363399567432
 30
0.0
 11
-26627.57031510702
 21
1112.363399567432
 31
0.0
  0
LINE
  5
251AB
330
1F0F6
100
AcDbEntity
  8
DIM
 62
     0
370
    -2
100
AcDbLine
 10
-26617.57031510702
 20
1112.363399567432
 30
0.0
 11
-26461.44980578461
 21
1112.363399567432
 31
0.0
  0
SOLID
  5
251AC
330
1F0F6
100
AcDbEntity
  8
DIM
 62
     0
100
AcDbTrace
 10
-26721.57031510701
 20
1114.030066234098
 30
0.0
 11
-26721.57031510701
 21
1110.696732900765
 31
0.0
 12
-26731.57031510701
 22
1112.363399567432
 32
0.0
 13
-26731.57031510701
 23
1112.363399567432
 33
0.0
  0
SOLID
  5
251AD
330
1F0F6
100
AcDbEntity
  8
DIM
 62
     0
100
AcDbTrace
 10
-26627.57031510702
 20
1114.030066234098
 30
0.0
 11
-26627.57031510702
 21
1110.696732900765
 31
0.0
 12
-26617.57031510702
 22
1112.363399567432
 32
0.0
 13
-26617.57031510702
 23
1112.363399567432
 33
0.0
  0
MTEXT
  5
251AE
330
1F0F6
100
AcDbEntity
  8
DIM
 62
     0
100
AcDbMText
 10
-26531.23698177369
 20
1128.671721531961
 30
0.0
 40
20.0
 41
0.0
 46
0.0
 71
     5
 72
     1
  1
%%c114(4.5")
  7
arial_ttf
 73
     1
 44
1.0
  0
POINT
  5
251AF
330
1F0F6
100
AcDbEntity
  8
Defpoints
 62
     0
100
AcDbPoint
 10
-26731.57031510701
 20
1074.548834808182
 30
0.0
  0
POINT
  5
251B0
330
1F0F6
100
AcDbEntity
  8
Defpoints
 62
     0
100
AcDbPoint
 10
-26617.57031510702
 20
1074.548834808181
 30
0.0
  0
POINT
  5
251B1
330
1F0F6
100
AcDbEntity
  8
Defpoints
 62
     0
100
AcDbPoint
 10
-26617.57031510702
 20
1112.363399567432
 30
0.0
  0
ENDBLK
  5
1F101
330
1F0F6
100
AcDbEntity
  8
0
100
AcDbBlockEnd
  0
BLOCK
  5
1F118
330
1F10E
100
AcDbEntity
  8
0
100
AcDbBlockBegin
  2
*D14
 70
     1
 10
0.0
 20
0.0
 30
0.0
  3
*D14
  1

  0
LINE
  5
2519E
330
1F10E
100
AcDbEntity
  8
DIM
 62
     0
370
    -2
100
AcDbLine
 10
-26734.57031510694
 20
1078.54883480818
 30
0.0
 11
-26734.57031510694
 21
1158.786631684517
 31
0.0
  0
LINE
  5
2519F
330
1F10E
100
AcDbEntity
  8
DIM
 62
     0
370
    -2
100
AcDbLine
 10
-26614.57031510702
 20
1078.548834808182
 30
0.0
 11
-26614.57031510702
 21
1158.786631684517
 31
0.0
  0
LINE
  5
251A0
330
1F10E
100
AcDbEntity
  8
DIM
 62
     0
370
    -2
100
AcDbLine
 10
-26724.57031510695
 20
1157.536631684517
 30
0.0
 11
-26624.57031510702
 21
1157.536631684517
 31
0.0
  0
LINE
  5
251A1
330
1F10E
100
AcDbEntity
  8
DIM
 62
     0
370
    -2
100
AcDbLine
 10
-26614.57031510702
 20
1157.536631684517
 30
0.0
 11
-26456.78313911794
 21
1157.536631684517
 31
0.0
  0
SOLID
  5
251A2
330
1F10E
100
AcDbEntity
  8
DIM
 62
     0
100
AcDbTrace
 10
-26724.57031510695
 20
1159.203298351184
 30
0.0
 11
-26724.57031510695
 21
1155.86996501785
 31
0.0
 12
-26734.57031510694
 22
1157.536631684517
 32
0.0
 13
-26734.57031510694
 23
1157.536631684517
 33
0.0
  0
SOLID
  5
251A3
330
1F10E
100
AcDbEntity
  8
DIM
 62
     0
100
AcDbTrace
 10
-26624.57031510702
 20
1159.203298351184
 30
0.0
 11
-26624.57031510702
 21
1155.86996501785
 31
0.0
 12
-26614.57031510702
 22
1157.536631684517
 32
0.0
 13
-26614.57031510702
 23
1157.536631684517
 33
0.0
  0
MTEXT
  5
251A4
330
1F10E
100
AcDbEntity
  8
DIM
 62
     0
100
AcDbMText
 10
-26526.57031510702
 20
1173.844953649047
 30
0.0
 40
20.0
 41
0.0
 46
0.0
 71
     5
 72
     1
  1
%%c120(4.7")
  7
arial_ttf
 73
     1
 44
1.0
  0
POINT
  5
251A5
330
1F10E
100
AcDbEntity
  8
Defpoints
 62
     0
100
AcDbPoint
 10
-26734.57031510694
 20
1077.54883480818
 30
0.0
  0
POINT
  5
251A6
330
1F10E
100
AcDbEntity
  8
Defpoints
 62
     0
100
AcDbPoint
 10
-26614.57031510702
 20
1077.548834808182
 30
0.0
  0
POINT
  5
251A7
330
1F10E
100
AcDbEntity
  8
Defpoints
 62
     0
100
AcDbPoint
 10
-26614.57031510702
 20
1157.536631684517
 30
0.0
  0
ENDBLK
  5
1F119
330
1F10E
100
AcDbEntity
  8
0
100
AcDbBlockEnd
  0
BLOCK
  5
1F132
330
1F126
100
AcDbEntity
  8
0
100
AcDbBlockBegin
  2
*D15
 70
     1
 10
0.0
 20
0.0
 30
0.0
  3
*D15
  1

  0
LINE
  5
25193
330
1F126
100
AcDbEntity
  8
DIM
 62
     0
370
    -2
100
AcDbLine
 10
-26735.57031510702
 20
1077.548834808182
 30
0.0
 11
-26807.02587318781
 21
1077.548834808182
 31
0.0
  0
LINE
  5
25194
330
1F126
100
AcDbEntity
  8
DIM
 62
     0
370
    -2
100
AcDbLine
 10
-26722.57031510702
 20
1071.548834808182
 30
0.0
 11
-26807.02587318781
 21
1071.548834808182
 31
0.0
  0
LINE
  5
25195
330
1F126
100
AcDbEntity
  8
DIM
 62
     0
370
    -2
100
AcDbLine
 10
-26805.77587318782
 20
1087.548834808182
 30
0.0
 11
-26805.77587318782
 21
1097.548834808183
 31
0.0
  0
LINE
  5
25196
330
1F126
100
AcDbEntity
  8
DIM
 62
     0
370
    -2
100
AcDbLine
 10
-26805.77587318782
 20
1061.548834808182
 30
0.0
 11
-26805.77587318782
 21
949.164114480761
 31
0.0
  0
LINE
  5
25197
330
1F126
100
AcDbEntity
  8
DIM
 62
     0
370
    -2
100
AcDbLine
 10
-26805.77587318782
 20
1077.548834808182
 30
0.0
 11
-26805.77587318782
 21
1071.548834808182
 31
0.0
  0
SOLID
  5
25198
330
1F126
100
AcDbEntity
  8
DIM
 62
     0
100
AcDbTrace
 10
-26807.44253985448
 20
1087.548834808182
 30
0.0
 11
-26804.10920652115
 21
1087.548834808182
 31
0.0
 12
-26805.77587318782
 22
1077.548834808182
 32
0.0
 13
-26805.77587318782
 23
1077.548834808182
 33
0.0
  0
SOLID
  5
25199
330
1F126
100
AcDbEntity
  8
DIM
 62
     0
100
AcDbTrace
 10
-26807.44253985448
 20
1061.548834808182
 30
0.0
 11
-26804.10920652115
 21
1061.548834808182
 31
0.0
 12
-26805.77587318782
 22
1071.548834808182
 32
0.0
 13
-26805.77587318782
 23
1071.548834808182
 33
0.0
  0
MTEXT
  5
2519A
330
1F126
100
AcDbEntity
  8
DIM
 62
     0
100
AcDbMText
 10
-26821.88637796271
 20
1000.356474644467
 30
0.0
 40
20.0
 41
0.0
 46
0.0
 71
     5
 72
     1
  1
6(0.24")
  7
arial_ttf
 11
0.0000000000000001
 21
1.0
 31
0.0
 73
     1
 44
1.0
  0
POINT
  5
2519B
330
1F126
100
AcDbEntity
  8
Defpoints
 62
     0
100
AcDbPoint
 10
-26734.57031510702
 20
1077.548834808182
 30
0.0
  0
POINT
  5
2519C
330
1F126
100
AcDbEntity
  8
Defpoints
 62
     0
100
AcDbPoint
 10
-26721.57031510701
 20
1071.548834808182
 30
0.0
  0
POINT
  5
2519D
330
1F126
100
AcDbEntity
  8
Defpoints
 62
     0
100
AcDbPoint
 10
-26805.77587318782
 20
1071.548834808182
 30
0.0
  0
ENDBLK
  5
1F133
330
1F126
100
AcDbEntity
  8
0
100
AcDbBlockEnd
  0
BLOCK
  5
1F14E
330
1F142
100
AcDbEntity
  8
0
100
AcDbBlockBegin
  2
*D16
 70
     1
 10
0.0
 20
0.0
 30
0.0
  3
*D16
  1

  0
LINE
  5
25188
330
1F142
100
AcDbEntity
  8
DIM
 62
     0
370
    -2
100
AcDbLine
 10
-26735.57031510702
 20
1077.548834808182
 30
0.0
 11
-26756.61534430413
 21
1077.548834808182
 31
0.0
  0
LINE
  5
25189
330
1F142
100
AcDbEntity
  8
DIM
 62
     0
370
    -2
100
AcDbLine
 10
-26732.57031510701
 20
1074.548834808182
 30
0.0
 11
-26756.61534430413
 21
1074.548834808182
 31
0.0
  0
LINE
  5
2518A
330
1F142
100
AcDbEntity
  8
DIM
 62
     0
370
    -2
100
AcDbLine
 10
-26755.36534430412
 20
1087.548834808182
 30
0.0
 11
-26755.36534430412
 21
1097.548834808183
 31
0.0
  0
LINE
  5
2518B
330
1F142
100
AcDbEntity
  8
DIM
 62
     0
370
    -2
100
AcDbLine
 10
-26755.36534430412
 20
1064.548834808182
 30
0.0
 11
-26755.36534430412
 21
952.2868975639807
 31
0.0
  0
LINE
  5
2518C
330
1F142
100
AcDbEntity
  8
DIM
 62
     0
370
    -2
100
AcDbLine
 10
-26755.36534430412
 20
1077.548834808182
 30
0.0
 11
-26755.36534430412
 21
1074.548834808182
 31
0.0
  0
SOLID
  5
2518D
330
1F142
100
AcDbEntity
  8
DIM
 62
     0
100
AcDbTrace
 10
-26757.03201097079
 20
1087.548834808182
 30
0.0
 11
-26753.69867763746
 21
1087.548834808182
 31
0.0
 12
-26755.36534430412
 22
1077.548834808182
 32
0.0
 13
-26755.36534430412
 23
1077.548834808182
 33
0.0
  0
SOLID
  5
2518E
330
1F142
100
AcDbEntity
  8
DIM
 62
     0
100
AcDbTrace
 10
-26757.03201097079
 20
1064.548834808182
 30
0.0
 11
-26753.69867763746
 21
1064.548834808182
 31
0.0
 12
-26755.36534430412
 22
1074.548834808182
 32
0.0
 13
-26755.36534430412
 23
1074.548834808182
 33
0.0
  0
MTEXT
  5
2518F
330
1F142
100
AcDbEntity
  8
DIM
 62
     0
100
AcDbMText
 10
-26771.47584907902
 20
1003.417866186077
 30
0.0
 40
20.0
 41
0.0
 46
0.0
 71
     5
 72
     1
  1
3(0.11")
  7
arial_ttf
 11
0.0000000000000001
 21
1.0
 31
0.0
 73
     1
 44
1.0
  0
POINT
  5
25190
330
1F142
100
AcDbEntity
  8
Defpoints
 62
     0
100
AcDbPoint
 10
-26734.57031510702
 20
1077.548834808182
 30
0.0
  0
POINT
  5
25191
330
1F142
100
AcDbEntity
  8
Defpoints
 62
     0
100
AcDbPoint
 10
-26731.57031510701
 20
1074.548834808182
 30
0.0
  0
POINT
  5
25192
330
1F142
100
AcDbEntity
  8
Defpoints
 62
     0
100
AcDbPoint
 10
-26755.36534430412
 20
1074.548834808182
 30
0.0
  0
ENDBLK
  5
1F14F
330
1F142
100
AcDbEntity
  8
0
100
AcDbBlockEnd
  0
BLOCK
  5
20839
330
20833
100
AcDbEntity
  8
0
100
AcDbBlockBegin
  2
A$C25B06599
 70
     0
 10
0.0
 20
0.0
 30
0.0
  3
A$C25B06599
  1

  0
LINE
  5
20834
330
20833
100
AcDbEntity
  8
2凹模板
100
AcDbLine
 10
-20135.92270403604
 20
-3417.432698100967
 30
0.0
 11
-20121.97270403604
 21
-3414.46753406567
 31
0.0
  0
LINE
  5
20835
330
20833
100
AcDbEntity
  8
2凹模板
100
AcDbLine
 10
-20121.97270403604
 20
-3414.46753406567
 30
0.0
 11
-20029.87270403603
 21
-3414.46753406567
 31
0.0
  0
LINE
  5
20836
330
20833
100
AcDbEntity
  8
2凹模板
100
AcDbLine
 10
-20135.92270403604
 20
-3417.432698100967
 30
0.0
 11
-20135.92270403604
 21
-3420.432698100967
 31
0.0
  0
LINE
  5
20837
330
20833
100
AcDbEntity
  8
2凹模板
100
AcDbLine
 10
-20015.92270403603
 20
-3417.432698100967
 30
0.0
 11
-20015.92270403603
 21
-3420.432698100967
 31
0.0
  0
LINE
  5
20838
330
20833
100
AcDbEntity
  8
2凹模板
100
AcDbLine
 10
-20015.92270403603
 20
-3417.432698100967
 30
0.0
 11
-20029.87270403603
 21
-3414.46753406567
 31
0.0
  0
ENDBLK
  5
2083A
330
20833
100
AcDbEntity
  8
0
100
AcDbBlockEnd
  0
BLOCK
  5
23497
330
23496
100
AcDbEntity
  8
0
100
AcDbBlockBegin
  2
*D18
 70
     1
 10
0.0
 20
0.0
 30
0.0
  3
*D18
  1

  0
LINE
  5
23498
330
23496
100
AcDbEntity
  8
DIM
 62
     0
370
    -2
100
AcDbLine
 10
29499.82842381307
 20
-9881.107364329578
 30
0.0
 11
29499.82842381307
 21
-9861.599991933969
 31
0.0
  0
LINE
  5
23499
330
23496
100
AcDbEntity
  8
DIM
 62
     0
370
    -2
100
AcDbLine
 10
29497.82842381307
 20
-9881.107364329578
 30
0.0
 11
29497.82842381307
 21
-9861.599991933969
 31
0.0
  0
LINE
  5
2349A
330
23496
100
AcDbEntity
  8
DIM
 62
     0
370
    -2
100
AcDbLine
 10
29504.82842381306
 20
-9862.84999193397
 30
0.0
 11
29509.82842381307
 21
-9862.84999193397
 31
0.0
  0
LINE
  5
2349B
330
23496
100
AcDbEntity
  8
DIM
 62
     0
370
    -2
100
AcDbLine
 10
29492.82842381308
 20
-9862.84999193397
 30
0.0
 11
29467.82842381308
 21
-9862.84999193397
 31
0.0
  0
LINE
  5
2349C
330
23496
100
AcDbEntity
  8
DIM
 62
     0
370
    -2
100
AcDbLine
 10
29499.82842381307
 20
-9862.84999193397
 30
0.0
 11
29497.82842381307
 21
-9862.84999193397
 31
0.0
  0
SOLID
  5
2349D
330
23496
100
AcDbEntity
  8
DIM
 62
     0
100
AcDbTrace
 10
29504.82842381306
 20
-9862.016658600635
 30
0.0
 11
29504.82842381306
 21
-9863.683325267301
 31
0.0
 12
29499.82842381307
 22
-9862.84999193397
 32
0.0
 13
29499.82842381307
 23
-9862.84999193397
 33
0.0
  0
SOLID
  5
2349E
330
23496
100
AcDbEntity
  8
DIM
 62
     0
100
AcDbTrace
 10
29492.82842381308
 20
-9862.016658600635
 30
0.0
 11
29492.82842381308
 21
-9863.683325267301
 31
0.0
 12
29497.82842381307
 22
-9862.84999193397
 32
0.0
 13
29497.82842381307
 23
-9862.84999193397
 33
0.0
  0
MTEXT
  5
2349F
330
23496
100
AcDbEntity
  8
DIM
 62
     0
100
AcDbMText
 10
29477.82842381307
 20
-9850.349991933969
 30
0.0
 40
15.0
 41
0.0
 46
0.0
 71
     5
 72
     1
  1
2
 73
     1
 44
1.0
  0
POINT
  5
234A0
330
23496
100
AcDbEntity
  8
Defpoints
 62
     0
100
AcDbPoint
 10
29499.82842381307
 20
-9886.107364329577
 30
0.0
  0
POINT
  5
234A1
330
23496
100
AcDbEntity
  8
Defpoints
 62
     0
100
AcDbPoint
 10
29497.82842381307
 20
-9886.107364329577
 30
0.0
  0
POINT
  5
234A2
330
23496
100
AcDbEntity
  8
Defpoints
 62
     0
100
AcDbPoint
 10
29497.82842381307
 20
-9862.84999193397
 30
0.0
  0
ENDBLK
  5
234A3
330
23496
100
AcDbEntity
  8
0
100
AcDbBlockEnd
  0
BLOCK
  5
234A5
330
234A4
100
AcDbEntity
  8
0
100
AcDbBlockBegin
  2
*D19
 70
     1
 10
0.0
 20
0.0
 30
0.0
  3
*D19
  1

  0
LINE
  5
234A6
330
234A4
100
AcDbEntity
  8
DIM
 62
     0
370
    -2
100
AcDbLine
 10
29868.3234791781
 20
-10181.10736432957
 30
0.0
 11
29868.3234791781
 21
-10294.04822129325
 31
0.0
  0
LINE
  5
234A7
330
234A4
100
AcDbEntity
  8
DIM
 62
     0
370
    -2
100
AcDbLine
 10
30128.32347917811
 20
-10181.10736432957
 30
0.0
 11
30128.32347917811
 21
-10294.04822129325
 31
0.0
  0
LINE
  5
234A8
330
234A4
100
AcDbEntity
  8
DIM
 62
     0
370
    -2
100
AcDbLine
 10
29873.3234791781
 20
-10292.79822129325
 30
0.0
 11
30123.32347917811
 21
-10292.79822129325
 31
0.0
  0
SOLID
  5
234A9
330
234A4
100
AcDbEntity
  8
DIM
 62
     0
100
AcDbTrace
 10
29873.3234791781
 20
-10291.96488795992
 30
0.0
 11
29873.3234791781
 21
-10293.63155462659
 31
0.0
 12
29868.3234791781
 22
-10292.79822129325
 32
0.0
 13
29868.3234791781
 23
-10292.79822129325
 33
0.0
  0
SOLID
  5
234AA
330
234A4
100
AcDbEntity
  8
DIM
 62
     0
100
AcDbTrace
 10
30123.32347917811
 20
-10291.96488795992
 30
0.0
 11
30123.32347917811
 21
-10293.63155462659
 31
0.0
 12
30128.32347917811
 22
-10292.79822129325
 32
0.0
 13
30128.32347917811
 23
-10292.79822129325
 33
0.0
  0
MTEXT
  5
234AB
330
234A4
100
AcDbEntity
  8
DIM
 62
     0
100
AcDbMText
 10
29998.32347917811
 20
-10280.29822129325
 30
0.0
 40
15.0
 41
0.0
 46
0.0
 71
     5
 72
     1
  1
260
 73
     1
 44
1.0
  0
POINT
  5
234AC
330
234A4
100
AcDbEntity
  8
Defpoints
 62
     0
100
AcDbPoint
 10
29868.3234791781
 20
-10176.10736432957
 30
0.0
  0
POINT
  5
234AD
330
234A4
100
AcDbEntity
  8
Defpoints
 62
     0
100
AcDbPoint
 10
30128.32347917811
 20
-10176.10736432957
 30
0.0
  0
POINT
  5
234AE
330
234A4
100
AcDbEntity
  8
Defpoints
 62
     0
100
AcDbPoint
 10
30128.32347917811
 20
-10292.79822129325
 30
0.0
  0
ENDBLK
  5
234AF
330
234A4
100
AcDbEntity
  8
0
100
AcDbBlockEnd
  0
BLOCK
  5
234B1
330
234B0
100
AcDbEntity
  8
0
100
AcDbBlockBegin
  2
*D20
 70
     1
 10
0.0
 20
0.0
 30
0.0
  3
*D20
  1

  0
LINE
  5
234B2
330
234B0
100
AcDbEntity
  8
DIM
 62
     0
370
    -2
100
AcDbLine
 10
29883.3234791781
 20
-10196.10736432957
 30
0.0
 11
29804.3774948522
 21
-10196.10736432957
 31
0.0
  0
LINE
  5
234B3
330
234B0
100
AcDbEntity
  8
DIM
 62
     0
370
    -2
100
AcDbLine
 10
29883.32347917811
 20
-9886.107364329577
 30
0.0
 11
29804.3774948522
 21
-9886.107364329577
 31
0.0
  0
LINE
  5
234B4
330
234B0
100
AcDbEntity
  8
DIM
 62
     0
370
    -2
100
AcDbLine
 10
29805.62749485221
 20
-10191.10736432957
 30
0.0
 11
29805.62749485221
 21
-9891.107364329577
 31
0.0
  0
SOLID
  5
234B5
330
234B0
100
AcDbEntity
  8
DIM
 62
     0
100
AcDbTrace
 10
29804.79416151887
 20
-10191.10736432957
 30
0.0
 11
29806.46082818554
 21
-10191.10736432957
 31
0.0
 12
29805.62749485221
 22
-10196.10736432957
 32
0.0
 13
29805.62749485221
 23
-10196.10736432957
 33
0.0
  0
SOLID
  5
234B6
330
234B0
100
AcDbEntity
  8
DIM
 62
     0
100
AcDbTrace
 10
29804.79416151887
 20
-9891.107364329577
 30
0.0
 11
29806.46082818554
 21
-9891.107364329577
 31
0.0
 12
29805.62749485221
 22
-9886.107364329577
 32
0.0
 13
29805.62749485221
 23
-9886.107364329577
 33
0.0
  0
MTEXT
  5
234B7
330
234B0
100
AcDbEntity
  8
DIM
 62
     0
100
AcDbMText
 10
29793.12749485221
 20
-10041.10736432957
 30
0.0
 40
15.0
 41
0.0
 46
0.0
 71
     5
 72
     1
  1
310
 11
0.0000000000000001
 21
1.0
 31
0.0
 73
     1
 44
1.0
  0
POINT
  5
234B8
330
234B0
100
AcDbEntity
  8
Defpoints
 62
     0
100
AcDbPoint
 10
29888.3234791781
 20
-10196.10736432957
 30
0.0
  0
POINT
  5
234B9
330
234B0
100
AcDbEntity
  8
Defpoints
 62
     0
100
AcDbPoint
 10
29888.32347917811
 20
-9886.107364329577
 30
0.0
  0
POINT
  5
234BA
330
234B0
100
AcDbEntity
  8
Defpoints
 62
     0
100
AcDbPoint
 10
29805.62749485221
 20
-9886.107364329577
 30
0.0
  0
ENDBLK
  5
234BB
330
234B0
100
AcDbEntity
  8
0
100
AcDbBlockEnd
  0
BLOCK
  5
234BD
330
234BC
100
AcDbEntity
  8
0
100
AcDbBlockBegin
  2
*D21
 70
     1
 10
0.0
 20
0.0
 30
0.0
  3
*D21
  1

  0
LINE
  5
234BE
330
234BC
100
AcDbEntity
  8
DIM
 62
     0
370
    -2
100
AcDbLine
 10
30216.20728705951
 20
-9842.228487670105
 30
0.0
 11
30129.83533713657
 21
-9893.370018955621
 31
0.0
  0
MTEXT
  5
234BF
330
234BC
100
AcDbEntity
  8
DIM
 62
     0
100
AcDbMText
 10
30176.49523453694
 20
-9851.215444020525
 30
0.0
 40
15.0
 41
0.0
 46
0.0
 71
     5
 72
     1
  1
4-R20
 11
0.8604743183378209
 21
0.5094938149585947
 31
0.0
 73
     1
 44
1.0
  0
LINE
  5
234C0
330
234BC
100
AcDbEntity
  8
DIM
 62
     0
370
    -2
100
AcDbLine
 10
30108.32347917814
 20
-9906.107364329571
 30
0.0
 11
30125.53296554489
 21
-9895.917488030413
 31
0.0
  0
SOLID
  5
234C1
330
234BC
100
AcDbEntity
  8
DIM
 62
     0
100
AcDbTrace
 10
30129.41075895744
 20
-9892.652957023672
 30
0.0
 11
30130.2599153157
 21
-9894.087080887565
 31
0.0
 12
30125.53296554489
 22
-9895.917488030413
 32
0.0
 13
30125.53296554489
 23
-9895.917488030413
 33
0.0
  0
POINT
  5
234C2
330
234BC
100
AcDbEntity
  8
Defpoints
 62
     0
100
AcDbPoint
 10
30125.53296554489
 20
-9895.917488030413
 30
0.0
  0
POINT
  5
234C3
330
234BC
100
AcDbEntity
  8
Defpoints
 62
     0
100
AcDbPoint
 10
30108.32347917814
 20
-9906.107364329571
 30
0.0
  0
ENDBLK
  5
234C4
330
234BC
100
AcDbEntity
  8
0
100
AcDbBlockEnd
  0
BLOCK
  5
234C6
330
234C5
100
AcDbEntity
  8
0
100
AcDbBlockBegin
  2
*D22
 70
     1
 10
0.0
 20
0.0
 30
0.0
  3
*D22
  1

  0
LINE
  5
234C7
330
234C5
100
AcDbEntity
  8
DIM
 62
     0
370
    -2
100
AcDbLine
 10
30003.32347917811
 20
-9967.107364329571
 30
0.0
 11
30210.52744578678
 21
-9967.107364329571
 31
0.0
  0
LINE
  5
234C8
330
234C5
100
AcDbEntity
  8
DIM
 62
     0
370
    -2
100
AcDbLine
 10
30113.32347917811
 20
-10196.10736432957
 30
0.0
 11
30210.52744578678
 21
-10196.10736432957
 31
0.0
  0
LINE
  5
234C9
330
234C5
100
AcDbEntity
  8
DIM
 62
     0
370
    -2
100
AcDbLine
 10
30209.27744578678
 20
-9972.107364329572
 30
0.0
 11
30209.27744578678
 21
-10191.10736432957
 31
0.0
  0
SOLID
  5
234CA
330
234C5
100
AcDbEntity
  8
DIM
 62
     0
100
AcDbTrace
 10
30208.44411245346
 20
-9972.107364329572
 30
0.0
 11
30210.11077912012
 21
-9972.107364329572
 31
0.0
 12
30209.27744578678
 22
-9967.107364329571
 32
0.0
 13
30209.27744578678
 23
-9967.107364329571
 33
0.0
  0
SOLID
  5
234CB
330
234C5
100
AcDbEntity
  8
DIM
 62
     0
100
AcDbTrace
 10
30208.44411245346
 20
-10191.10736432957
 30
0.0
 11
30210.11077912012
 21
-10191.10736432957
 31
0.0
 12
30209.27744578678
 22
-10196.10736432957
 32
0.0
 13
30209.27744578678
 23
-10196.10736432957
 33
0.0
  0
MTEXT
  5
234CC
330
234C5
100
AcDbEntity
  8
DIM
 62
     0
100
AcDbMText
 10
30196.77744578678
 20
-10081.60736432957
 30
0.0
 40
15.0
 41
0.0
 46
0.0
 71
     5
 72
     1
  1
229
 11
0.0000000000000001
 21
1.0
 31
0.0
 73
     1
 44
1.0
  0
POINT
  5
234CD
330
234C5
100
AcDbEntity
  8
Defpoints
 62
     0
100
AcDbPoint
 10
29998.32347917811
 20
-9967.107364329571
 30
0.0
  0
POINT
  5
234CE
330
234C5
100
AcDbEntity
  8
Defpoints
 62
     0
100
AcDbPoint
 10
30108.32347917811
 20
-10196.10736432957
 30
0.0
  0
POINT
  5
234CF
330
234C5
100
AcDbEntity
  8
Defpoints
 62
     0
100
AcDbPoint
 10
30209.27744578678
 20
-10196.10736432957
 30
0.0
  0
ENDBLK
  5
234D0
330
234C5
100
AcDbEntity
  8
0
100
AcDbBlockEnd
  0
BLOCK
  5
234D2
330
234D1
100
AcDbEntity
  8
0
100
AcDbBlockBegin
  2
*D23
 70
     1
 10
0.0
 20
0.0
 30
0.0
  3
*D23
  1

  0
LINE
  5
234D3
330
234D1
100
AcDbEntity
  8
DIM
 62
     0
370
    -2
100
AcDbLine
 10
30053.01627058973
 20
-10101.40592327334
 30
0.0
 11
30025.66831138508
 21
-10034.25280461833
 31
0.0
  0
LINE
  5
234D4
330
234D1
100
AcDbEntity
  8
DIM
 62
     0
370
    -2
100
AcDbLine
 10
29970.97864697114
 20
-9899.961924040804
 30
0.0
 11
29969.09279647411
 21
-9895.331204020886
 31
0.0
  0
MTEXT
  5
234D5
330
234D1
100
AcDbEntity
  8
DIM
 62
     0
100
AcDbMText
 10
30053.27796765732
 20
-10068.90697691127
 30
0.0
 40
15.0
 41
0.0
 46
0.0
 71
     5
 72
     1
  1
∅135
 11
0.3771700994064677
 21
-0.9261440039830281
 31
0.0
 73
     1
 44
1.0
  0
LINE
  5
234D6
330
234D1
100
AcDbEntity
  8
DIM
 62
     0
370
    -2
100
AcDbLine
 10
29972.86449746817
 20
-9904.592644060716
 30
0.0
 11
30023.78246088805
 21
-10029.62208459842
 31
0.0
  0
SOLID
  5
234D7
330
234D1
100
AcDbEntity
  8
DIM
 62
     0
100
AcDbTrace
 10
29971.75043364112
 20
-9899.64761562463
 30
0.0
 11
29970.20686030116
 21
-9900.276232456974
 31
0.0
 12
29972.86449746817
 22
-9904.592644060716
 32
0.0
 13
29972.86449746817
 23
-9904.592644060716
 33
0.0
  0
SOLID
  5
234D8
330
234D1
100
AcDbEntity
  8
DIM
 62
     0
100
AcDbTrace
 10
30026.44009805507
 20
-10033.93849620217
 30
0.0
 11
30024.89652471509
 21
-10034.56711303451
 31
0.0
 12
30023.78246088805
 22
-10029.62208459842
 32
0.0
 13
30023.78246088805
 23
-10029.62208459842
 33
0.0
  0
POINT
  5
234D9
330
234D1
100
AcDbEntity
  8
Defpoints
 62
     0
100
AcDbPoint
 10
30023.78246088805
 20
-10029.62208459842
 30
0.0
  0
POINT
  5
234DA
330
234D1
100
AcDbEntity
  8
Defpoints
 62
     0
100
AcDbPoint
 10
29972.86449746817
 20
-9904.592644060716
 30
0.0
  0
ENDBLK
  5
234DB
330
234D1
100
AcDbEntity
  8
0
100
AcDbBlockEnd
  0
BLOCK
  5
234DD
330
234DC
100
AcDbEntity
  8
0
100
AcDbBlockBegin
  2
*D24
 70
     1
 10
0.0
 20
0.0
 30
0.0
  3
*D24
  1

  0
LINE
  5
234DE
330
234DC
100
AcDbEntity
  8
DIM
 62
     0
370
    -2
100
AcDbLine
 10
30017.90778571284
 20
-9824.513687557269
 30
0.0
 11
29953.34729481943
 21
-9888.507755093769
 31
0.0
  0
MTEXT
  5
234DF
330
234DC
100
AcDbEntity
  8
DIM
 62
     0
100
AcDbMText
 10
29981.58713180247
 20
-9842.915388552626
 30
0.0
 40
15.0
 41
0.0
 46
0.0
 71
     5
 72
     1
  1
2-R20
 11
0.710215465612203
 21
0.7039843694324768
 31
0.0
 73
     1
 44
1.0
  0
LINE
  5
234E0
330
234DC
100
AcDbEntity
  8
DIM
 62
     0
370
    -2
100
AcDbLine
 10
29935.59190817912
 20
-9906.107364329578
 30
0.0
 11
29949.79621749137
 21
-9892.027676940926
 31
0.0
  0
SOLID
  5
234E1
330
234DC
100
AcDbEntity
  8
DIM
 62
     0
100
AcDbTrace
 10
29952.76064117824
 20
-9887.915908872423
 30
0.0
 11
29953.93394846062
 21
-9889.099601315107
 31
0.0
 12
29949.79621749137
 22
-9892.027676940926
 32
0.0
 13
29949.79621749137
 23
-9892.027676940926
 33
0.0
  0
POINT
  5
234E2
330
234DC
100
AcDbEntity
  8
Defpoints
 62
     0
100
AcDbPoint
 10
29949.79621749137
 20
-9892.027676940926
 30
0.0
  0
POINT
  5
234E3
330
234DC
100
AcDbEntity
  8
Defpoints
 62
     0
100
AcDbPoint
 10
29935.59190817912
 20
-9906.107364329578
 30
0.0
  0
ENDBLK
  5
234E4
330
234DC
100
AcDbEntity
  8
0
100
AcDbBlockEnd
  0
BLOCK
  5
234E6
330
234E5
100
AcDbEntity
  8
0
100
AcDbBlockBegin
  2
*D25
 70
     1
 10
0.0
 20
0.0
 30
0.0
  3
*D25
  1

  0
LINE
  5
234E7
330
234E5
100
AcDbEntity
  8
7dim
 62
     0
370
    -2
100
AcDbLine
 10
29750.31324015311
 20
-8990.434087502064
 30
0.0
 11
29701.25863731312
 21
-8990.434087502064
 31
0.0
  0
LINE
  5
234E8
330
234E5
100
AcDbEntity
  8
7dim
 62
     0
370
    -2
100
AcDbLine
 10
29750.31324015311
 20
-9090.434087502067
 30
0.0
 11
29701.25863731312
 21
-9090.434087502067
 31
0.0
  0
LINE
  5
234E9
330
234E5
100
AcDbEntity
  8
7dim
 62
     0
370
    -2
100
AcDbLine
 10
29702.50863731312
 20
-8995.434087502067
 30
0.0
 11
29702.50863731312
 21
-9085.43408750207
 31
0.0
  0
SOLID
  5
234EA
330
234E5
100
AcDbEntity
  8
7dim
 62
     0
100
AcDbTrace
 10
29701.67530397978
 20
-8995.434087502067
 30
0.0
 11
29703.34197064645
 21
-8995.434087502067
 31
0.0
 12
29702.50863731312
 22
-8990.434087502064
 32
0.0
 13
29702.50863731312
 23
-8990.434087502064
 33
0.0
  0
SOLID
  5
234EB
330
234E5
100
AcDbEntity
  8
7dim
 62
     0
100
AcDbTrace
 10
29701.67530397978
 20
-9085.43408750207
 30
0.0
 11
29703.34197064645
 21
-9085.43408750207
 31
0.0
 12
29702.50863731312
 22
-9090.434087502067
 32
0.0
 13
29702.50863731312
 23
-9090.434087502067
 33
0.0
  0
MTEXT
  5
234EC
330
234E5
100
AcDbEntity
  8
7dim
 62
     0
100
AcDbMText
 10
29690.00863731313
 20
-9040.434087502061
 30
0.0
 40
15.0
 41
0.0
 46
0.0
 71
     5
 72
     1
  1
100
 11
0.0000000000000001
 21
1.0
 31
0.0
 73
     1
 44
1.0
  0
POINT
  5
234ED
330
234E5
100
AcDbEntity
  8
Defpoints
 62
     0
100
AcDbPoint
 10
29755.31324015311
 20
-8990.434087502064
 30
0.0
  0
POINT
  5
234EE
330
234E5
100
AcDbEntity
  8
Defpoints
 62
     0
100
AcDbPoint
 10
29755.31324015311
 20
-9090.434087502067
 30
0.0
  0
POINT
  5
234EF
330
234E5
100
AcDbEntity
  8
Defpoints
 62
     0
100
AcDbPoint
 10
29702.50863731312
 20
-9090.434087502067
 30
0.0
  0
ENDBLK
  5
234F0
330
234E5
100
AcDbEntity
  8
0
100
AcDbBlockEnd
  0
BLOCK
  5
234F2
330
234F1
100
AcDbEntity
  8
0
100
AcDbBlockBegin
  2
*D26
 70
     1
 10
0.0
 20
0.0
 30
0.0
  3
*D26
  1

  0
LINE
  5
234F3
330
234F1
100
AcDbEntity
  8
7dim
 62
     0
370
    -2
100
AcDbLine
 10
29735.3132401531
 20
-9075.434087502065
 30
0.0
 11
29735.3132401531
 21
-9129.474027719641
 31
0.0
  0
LINE
  5
234F4
330
234F1
100
AcDbEntity
  8
7dim
 62
     0
370
    -2
100
AcDbLine
 10
29935.31324015311
 20
-9075.434087502065
 30
0.0
 11
29935.31324015311
 21
-9129.474027719641
 31
0.0
  0
LINE
  5
234F5
330
234F1
100
AcDbEntity
  8
7dim
 62
     0
370
    -2
100
AcDbLine
 10
29740.31324015311
 20
-9128.224027719639
 30
0.0
 11
29930.3132401531
 21
-9128.224027719639
 31
0.0
  0
SOLID
  5
234F6
330
234F1
100
AcDbEntity
  8
7dim
 62
     0
100
AcDbTrace
 10
29740.31324015311
 20
-9127.390694386305
 30
0.0
 11
29740.31324015311
 21
-9129.057361052971
 31
0.0
 12
29735.3132401531
 22
-9128.224027719639
 32
0.0
 13
29735.3132401531
 23
-9128.224027719639
 33
0.0
  0
SOLID
  5
234F7
330
234F1
100
AcDbEntity
  8
7dim
 62
     0
100
AcDbTrace
 10
29930.3132401531
 20
-9127.390694386305
 30
0.0
 11
29930.3132401531
 21
-9129.057361052971
 31
0.0
 12
29935.31324015311
 22
-9128.224027719639
 32
0.0
 13
29935.31324015311
 23
-9128.224027719639
 33
0.0
  0
MTEXT
  5
234F8
330
234F1
100
AcDbEntity
  8
7dim
 62
     0
100
AcDbMText
 10
29835.31324015311
 20
-9115.724027719641
 30
0.0
 40
15.0
 41
0.0
 46
0.0
 71
     5
 72
     1
  1
200
 73
     1
 44
1.0
  0
POINT
  5
234F9
330
234F1
100
AcDbEntity
  8
Defpoints
 62
     0
100
AcDbPoint
 10
29735.3132401531
 20
-9070.434087502064
 30
0.0
  0
POINT
  5
234FA
330
234F1
100
AcDbEntity
  8
Defpoints
 62
     0
100
AcDbPoint
 10
29935.31324015311
 20
-9070.434087502064
 30
0.0
  0
POINT
  5
234FB
330
234F1
100
AcDbEntity
  8
Defpoints
 62
     0
100
AcDbPoint
 10
29935.31324015311
 20
-9128.224027719639
 30
0.0
  0
ENDBLK
  5
234FC
330
234F1
100
AcDbEntity
  8
0
100
AcDbBlockEnd
  0
BLOCK
  5
234FE
330
234FD
100
AcDbEntity
  8
0
100
AcDbBlockBegin
  2
*D27
 70
     1
 10
0.0
 20
0.0
 30
0.0
  3
*D27
  1

  0
LINE
  5
234FF
330
234FD
100
AcDbEntity
  8
7dim
 62
     0
370
    -2
100
AcDbLine
 10
29730.3132401531
 20
-9198.6736783699
 30
0.0
 11
29700.09023883913
 21
-9198.6736783699
 31
0.0
  0
LINE
  5
23500
330
234FD
100
AcDbEntity
  8
7dim
 62
     0
370
    -2
100
AcDbLine
 10
29730.3132401531
 20
-9199.673678369903
 30
0.0
 11
29700.09023883913
 21
-9199.673678369903
 31
0.0
  0
LINE
  5
23501
330
234FD
100
AcDbEntity
  8
7dim
 62
     0
370
    -2
100
AcDbLine
 10
29701.34023883913
 20
-9193.673678369902
 30
0.0
 11
29701.34023883913
 21
-9188.673678369902
 31
0.0
  0
LINE
  5
23502
330
234FD
100
AcDbEntity
  8
7dim
 62
     0
370
    -2
100
AcDbLine
 10
29701.34023883913
 20
-9204.673678369902
 30
0.0
 11
29701.34023883913
 21
-9224.673678369901
 31
0.0
  0
LINE
  5
23503
330
234FD
100
AcDbEntity
  8
7dim
 62
     0
370
    -2
100
AcDbLine
 10
29701.34023883913
 20
-9198.6736783699
 30
0.0
 11
29701.34023883913
 21
-9199.673678369903
 31
0.0
  0
SOLID
  5
23504
330
234FD
100
AcDbEntity
  8
7dim
 62
     0
100
AcDbTrace
 10
29700.50690550579
 20
-9193.673678369902
 30
0.0
 11
29702.17357217246
 21
-9193.673678369902
 31
0.0
 12
29701.34023883913
 22
-9198.6736783699
 32
0.0
 13
29701.34023883913
 23
-9198.6736783699
 33
0.0
  0
SOLID
  5
23505
330
234FD
100
AcDbEntity
  8
7dim
 62
     0
100
AcDbTrace
 10
29700.50690550579
 20
-9204.673678369902
 30
0.0
 11
29702.17357217246
 21
-9204.673678369902
 31
0.0
 12
29701.34023883913
 22
-9199.673678369903
 32
0.0
 13
29701.34023883913
 23
-9199.673678369903
 33
0.0
  0
MTEXT
  5
23506
330
234FD
100
AcDbEntity
  8
7dim
 62
     0
100
AcDbMText
 10
29688.84023883913
 20
-9217.173678369896
 30
0.0
 40
15.0
 41
0.0
 46
0.0
 71
     5
 72
     1
  1
1
 11
0.0000000000000001
 21
1.0
 31
0.0
 73
     1
 44
1.0
  0
POINT
  5
23507
330
234FD
100
AcDbEntity
  8
Defpoints
 62
     0
100
AcDbPoint
 10
29735.3132401531
 20
-9198.6736783699
 30
0.0
  0
POINT
  5
23508
330
234FD
100
AcDbEntity
  8
Defpoints
 62
     0
100
AcDbPoint
 10
29735.3132401531
 20
-9199.673678369903
 30
0.0
  0
POINT
  5
23509
330
234FD
100
AcDbEntity
  8
Defpoints
 62
     0
100
AcDbPoint
 10
29701.34023883913
 20
-9199.673678369903
 30
0.0
  0
ENDBLK
  5
2350A
330
234FD
100
AcDbEntity
  8
0
100
AcDbBlockEnd
  0
BLOCK
  5
2350C
330
2350B
100
AcDbEntity
  8
0
100
AcDbBlockBegin
  2
*D28
 70
     1
 10
0.0
 20
0.0
 30
0.0
  3
*D28
  1

  0
LINE
  5
2350D
330
2350B
100
AcDbEntity
  8
7dim
 62
     0
370
    -2
100
AcDbLine
 10
29855.27724407734
 20
-9039.580738004952
 30
0.0
 11
29928.65457261438
 21
-9077.290387390316
 31
0.0
  0
MTEXT
  5
2350E
330
2350B
100
AcDbEntity
  8
7dim
 62
     0
100
AcDbMText
 10
29895.45593617585
 20
-9046.175068998524
 30
0.0
 40
15.0
 41
0.0
 46
0.0
 71
     5
 72
     1
  1
4-R20
 11
0.8894221640853508
 21
-0.4570866592165331
 31
0.0
 73
     1
 44
1.0
  0
SOLID
  5
2350F
330
2350B
100
AcDbEntity
  8
7dim
 62
     0
100
AcDbTrace
 10
29929.03547816373
 20
-9076.549202253579
 30
0.0
 11
29928.27366706503
 21
-9078.031572527054
 31
0.0
 12
29933.10168343482
 22
-9079.575820686399
 32
0.0
 13
29933.10168343482
 23
-9079.575820686399
 33
0.0
  0
POINT
  5
23510
330
2350B
100
AcDbEntity
  8
Defpoints
 62
     0
100
AcDbPoint
 10
29933.10168343482
 20
-9079.575820686399
 30
0.0
  0
POINT
  5
23511
330
2350B
100
AcDbEntity
  8
Defpoints
 62
     0
100
AcDbPoint
 10
29915.31324015308
 20
-9070.434087502064
 30
0.0
  0
ENDBLK
  5
23512
330
2350B
100
AcDbEntity
  8
0
100
AcDbBlockEnd
  0
BLOCK
  5
235CB
330
23513
100
AcDbEntity
  8
0
100
AcDbBlockBegin
  2
A$C28E869B6
 70
     0
 10
0.0
 20
0.0
 30
0.0
  3
A$C28E869B6
  1

  0
DIMENSION
  5
23514
102
{ACAD_XDICTIONARY
360
23515
102
}
102
{ACAD_REACTORS
330
23516
102
}
330
23513
100
AcDbEntity
  8
7dim
 62
     0
100
AcDbDimension
280
     0
  2
*D28
 10
-19315.25223969646
 20
-1844.633088899363
 30
0.0
 11
-19340.82312691391
 21
-1831.491847446892
 31
0.0
 12
-49230.56547984955
 22
7225.8009986027
 32
0.0
 70
   132
  1
4-<>
 71
     5
 42
20.00000000000728
 73
     0
 74
     0
 75
     0
  3
ISO-25
100
AcDbRadialDimension
 15
-19297.46379641475
 25
-1853.7748220837
 35
0.0
 40
0.0
1001
ACAD
1000
DSTYLE
1002
{
1070
    41
1040
5.0
1070
    42
1040
5.0
1070
    43
1040
5.0
1070
   140
1040
15.0
1070
   141
1040
0.0
1070
   179
1070
     1
1002
}
  0
DIMENSION
  5
23517
102
{ACAD_XDICTIONARY
360
23518
102
}
102
{ACAD_REACTORS
330
23519
102
}
330
23513
100
AcDbEntity
  8
7dim
 62
     0
100
AcDbDimension
280
     0
  2
*D27
 10
-19529.22524101043
 20
-1973.8726797672
 30
0.0
 11
-19541.72524101043
 21
-1991.372679767195
 31
0.0
 12
-49230.56547984955
 22
7225.8009986027
 32
0.0
 71
     5
 42
-1.0
 73
     0
 74
     0
 75
     0
  3
ISO-25
100
AcDbAlignedDimension
 13
-19495.25223969645
 23
-1972.872679767201
 33
0.0
 14
-19495.25223969645
 24
-1973.8726797672
 34
0.0
 50
90.0
100
AcDbRotatedDimension
1001
ACAD
1000
DSTYLE
1002
{
1070
    41
1040
5.0
1070
    42
1040
5.0
1070
    43
1040
5.0
1070
   140
1040
15.0
1070
   141
1040
0.0
1070
   179
1070
     1
1002
}
  0
DIMENSION
  5
2351A
102
{ACAD_XDICTIONARY
360
2351B
102
}
102
{ACAD_REACTORS
330
2351C
102
}
330
23513
100
AcDbEntity
  8
7dim
 62
     0
100
AcDbDimension
280
     0
  2
*D26
 10
-19295.25223969645
 20
-1902.423029116939
 30
0.0
 11
-19395.25223969645
 21
-1889.923029116939
 31
0.0
 12
-49230.56547984955
 22
7225.8009986027
 32
0.0
 71
     5
 42
200.0
 73
     0
 74
     0
 75
     0
  3
ISO-25
100
AcDbAlignedDimension
 13
-19495.25223969645
 23
-1844.633088899363
 33
0.0
 14
-19295.25223969645
 24
-1844.633088899363
 34
0.0
100
AcDbRotatedDimension
1001
ACAD
1000
DSTYLE
1002
{
1070
    41
1040
5.0
1070
    42
1040
5.0
1070
    43
1040
5.0
1070
   140
1040
15.0
1070
   141
1040
0.0
1070
   179
1070
     1
1002
}
  0
DIMENSION
  5
2351D
102
{ACAD_XDICTIONARY
360
2351E
102
}
102
{ACAD_REACTORS
330
2351F
102
}
330
23513
100
AcDbEntity
  8
7dim
 62
     0
100
AcDbDimension
280
     0
  2
*D25
 10
-19528.05684253644
 20
-1864.633088899369
 30
0.0
 11
-19540.55684253643
 21
-1814.633088899362
 31
0.0
 12
-49230.56547984955
 22
7225.8009986027
 32
0.0
 71
     5
 42
100.0000000000054
 73
     0
 74
     0
 75
     0
  3
ISO-25
100
AcDbAlignedDimension
 13
-19475.25223969645
 23
-1764.633088899363
 33
0.0
 14
-19475.25223969645
 24
-1864.633088899369
 34
0.0
 50
90.0
100
AcDbRotatedDimension
1001
ACAD
1000
DSTYLE
1002
{
1070
    41
1040
5.0
1070
    42
1040
5.0
1070
    43
1040
5.0
1070
   140
1040
15.0
1070
   141
1040
0.0
1070
   179
1070
     1
1002
}
  0
LINE
  5
23520
102
{ACAD_REACTORS
330
23519
102
}
330
23513
100
AcDbEntity
  8
7模芯座
 62
     0
100
AcDbLine
 10
-19495.25223969645
 20
-1973.8726797672
 30
0.0
 11
-19295.25223969646
 21
-1973.8726797672
 31
0.0
  0
LINE
  5
23521
102
{ACAD_REACTORS
330
23519
102
}
330
23513
100
AcDbEntity
  8
7模芯座
 62
     0
100
AcDbLine
 10
-19495.25223969645
 20
-1972.872679767201
 30
0.0
 11
-19295.25223969646
 21
-1972.872679767201
 31
0.0
  0
LINE
  5
23522
330
23513
100
AcDbEntity
  8
7模芯座
 62
     0
100
AcDbLine
 10
-19295.25223969646
 20
-1972.872679767201
 30
0.0
 11
-19295.25223969646
 21
-1973.8726797672
 31
0.0
  0
LINE
  5
23523
330
23513
100
AcDbEntity
  8
7模芯座
 62
     0
100
AcDbLine
 10
-19495.25223969645
 20
-1972.872679767201
 30
0.0
 11
-19495.25223969645
 21
-1973.8726797672
 31
0.0
  0
LWPOLYLINE
  5
23524
102
{ACAD_REACTORS
330
2351F
330
2351C
330
23516
102
}
330
23513
100
AcDbEntity
  8
7模芯座
 62
     0
100
AcDbPolyline
 90
        8
 70
     1
 43
0.0
 10
-19475.25223969645
 20
-1864.633088899369
 42
-0.4142135623731751
 10
-19495.25223969645
 20
-1844.633088899363
 10
-19495.25223969645
 20
-1784.633088899363
 42
-0.414213562373122
 10
-19475.25223969645
 20
-1764.633088899363
 10
-19315.25223969645
 20
-1764.633088899363
 42
-0.4142135623729619
 10
-19295.25223969646
 20
-1784.633088899363
 10
-19295.25223969645
 20
-1844.633088899363
 42
-0.4142135623729886
 10
-19315.25223969645
 20
-1864.633088899363
  0
DIMENSION
  5
23525
102
{ACAD_XDICTIONARY
360
23526
102
}
102
{ACAD_REACTORS
330
23527
102
}
330
23513
100
AcDbEntity
  8
DIM
 62
     0
100
AcDbDimension
280
     0
  2
*D24
 10
-19294.97357167044
 20
-2680.306365726876
 30
0.0
 11
-19240.17854342919
 21
-2625.992083270074
 31
0.0
 12
-49230.56547984955
 22
7225.8009986027
 32
0.0
 70
   132
  1
2-<>
 71
     5
 42
20.0
 73
     0
 74
     0
 75
     0
  3
ISO-25
100
AcDbRadialDimension
 15
-19280.76926235819
 25
-2666.226678338226
 35
0.0
 40
0.0
1001
ACAD
1000
DSTYLE
1002
{
1070
    41
1040
5.0
1070
    42
1040
5.0
1070
    43
1040
5.0
1070
   140
1040
15.0
1070
   141
1040
0.0
1070
   179
1070
     1
1070
   288
1070
     1
1002
}
  0
DIMENSION
  5
23528
102
{ACAD_XDICTIONARY
360
23529
102
}
102
{ACAD_REACTORS
330
2352A
102
}
330
23513
100
AcDbEntity
  8
DIM
 62
     0
100
AcDbDimension
280
     0
  2
*D23
 10
-19257.70098238139
 20
-2678.791645458016
 30
0.0
 11
-19188.86431224202
 21
-2847.820604551151
 31
0.0
 12
-49230.56547984955
 22
7225.8009986027
 32
0.0
 70
   131
 71
     5
 42
135.0
 73
     0
 74
     0
 75
     0
  3
ISO-25
100
AcDbDiametricDimension
 15
-19206.78301896152
 25
-2803.821085995725
 35
0.0
 40
0.0
1001
ACAD
1000
DSTYLE
1002
{
1070
    41
1040
5.0
1070
    42
1040
5.0
1070
    43
1040
5.0
1070
   140
1040
15.0
1070
   141
1040
0.0
1070
   179
1070
     1
1070
   288
1070
     1
1002
}
  0
DIMENSION
  5
2352B
102
{ACAD_XDICTIONARY
360
2352C
102
}
102
{ACAD_REACTORS
330
2352D
102
}
330
23513
100
AcDbEntity
  8
DIM
 62
     0
100
AcDbDimension
280
     0
  2
*D22
 10
-19021.28803406278
 20
-2970.306365726874
 30
0.0
 11
-19033.78803406278
 21
-2855.806365726868
 31
0.0
 12
-49230.56547984955
 22
7225.8009986027
 32
0.0
 71
     5
 42
229.0000000000018
 73
     0
 74
     0
 75
     0
  3
ISO-25
100
AcDbAlignedDimension
 13
-19232.24200067145
 23
-2741.306365726873
 33
0.0
 14
-19122.24200067145
 24
-2970.306365726874
 34
0.0
 50
90.0
100
AcDbRotatedDimension
1001
ACAD
1000
DSTYLE
1002
{
1070
    41
1040
5.0
1070
    42
1040
5.0
1070
    43
1040
5.0
1070
   140
1040
15.0
1070
   141
1040
0.0
1070
   179
1070
     1
1002
}
  0
DIMENSION
  5
2352E
102
{ACAD_XDICTIONARY
360
2352F
102
}
102
{ACAD_REACTORS
330
23530
102
}
330
23513
100
AcDbEntity
  8
DIM
 62
     0
100
AcDbDimension
280
     0
  2
*D21
 10
-19122.24200067142
 20
-2680.306365726873
 30
0.0
 11
-19047.70157262563
 21
-2636.170374397043
 31
0.0
 12
-49230.56547984955
 22
7225.8009986027
 32
0.0
 70
   132
  1
4-<>
 71
     5
 42
19.99999999997817
 73
     0
 74
     0
 75
     0
  3
ISO-25
100
AcDbRadialDimension
 15
-19105.03251430468
 25
-2670.116489427713
 35
0.0
 40
0.0
1001
ACAD
1000
DSTYLE
1002
{
1070
    41
1040
5.0
1070
    42
1040
5.0
1070
    43
1040
5.0
1070
   140
1040
15.0
1070
   141
1040
0.0
1070
   179
1070
     1
1070
   288
1070
     1
1002
}
  0
DIMENSION
  5
23531
102
{ACAD_XDICTIONARY
360
23532
102
}
102
{ACAD_REACTORS
330
23533
102
}
330
23513
100
AcDbEntity
  8
DIM
 62
     0
100
AcDbDimension
280
     0
  2
*D20
 10
-19424.93798499736
 20
-2660.306365726876
 30
0.0
 11
-19437.43798499735
 21
-2815.306365726869
 31
0.0
 12
-49230.56547984955
 22
7225.8009986027
 32
0.0
 71
     5
 42
309.9999999999982
 73
     0
 74
     0
 75
     0
  3
ISO-25
100
AcDbAlignedDimension
 13
-19342.24200067145
 23
-2970.306365726874
 33
0.0
 14
-19342.24200067145
 24
-2660.306365726876
 34
0.0
 50
90.0
100
AcDbRotatedDimension
1001
ACAD
1000
DSTYLE
1002
{
1070
    41
1040
5.0
1070
    42
1040
5.0
1070
    43
1040
5.0
1070
   140
1040
15.0
1070
   141
1040
0.0
1070
   179
1070
     1
1002
}
  0
DIMENSION
  5
23534
102
{ACAD_XDICTIONARY
360
23535
102
}
102
{ACAD_REACTORS
330
23536
102
}
330
23513
100
AcDbEntity
  8
DIM
 62
     0
100
AcDbDimension
280
     0
  2
*D19
 10
-19102.24200067145
 20
-3066.997222690555
 30
0.0
 11
-19232.24200067145
 21
-3054.497222690554
 31
0.0
 12
-49230.56547984955
 22
7225.8009986027
 32
0.0
 71
     5
 42
260.0000000000073
 73
     0
 74
     0
 75
     0
  3
ISO-25
100
AcDbAlignedDimension
 13
-19362.24200067145
 23
-2950.306365726874
 33
0.0
 14
-19102.24200067145
 24
-2950.306365726874
 34
0.0
100
AcDbRotatedDimension
1001
ACAD
1000
DSTYLE
1002
{
1070
    41
1040
5.0
1070
    42
1040
5.0
1070
    43
1040
5.0
1070
   140
1040
15.0
1070
   141
1040
0.0
1070
   179
1070
     1
1002
}
  0
DIMENSION
  5
23537
102
{ACAD_XDICTIONARY
360
23538
102
}
102
{ACAD_REACTORS
330
23539
102
}
330
23513
100
AcDbEntity
  8
DIM
 62
     0
100
AcDbDimension
280
     0
  2
*D18
 10
-19732.73705603649
 20
-2637.048993331266
 30
0.0
 11
-19752.73705603649
 21
-2624.548993331266
 31
0.0
 12
-49230.56547984955
 22
7225.8009986027
 32
0.0
 71
     5
 42
2.0
 73
     0
 74
     0
 75
     0
  3
ISO-25
100
AcDbAlignedDimension
 13
-19730.73705603648
 23
-2660.306365726874
 33
0.0
 14
-19732.73705603649
 24
-2660.306365726874
 34
0.0
100
AcDbRotatedDimension
1001
ACAD
1000
DSTYLE
1002
{
1070
    41
1040
5.0
1070
    42
1040
5.0
1070
    43
1040
5.0
1070
   140
1040
15.0
1070
   141
1040
0.0
1070
   179
1070
     1
1002
}
  0
LINE
  5
2353A
102
{ACAD_REACTORS
330
23539
102
}
330
23513
100
AcDbEntity
  8
7模芯座
 62
     0
100
AcDbLine
 10
-19730.73705603648
 20
-2660.306365726874
 30
0.0
 11
-19730.73705603648
 21
-2970.306365726874
 31
0.0
  0
LINE
  5
2353B
102
{ACAD_REACTORS
330
23539
102
}
330
23513
100
AcDbEntity
  8
7模芯座
 62
     0
100
AcDbLine
 10
-19732.73705603649
 20
-2660.306365726874
 30
0.0
 11
-19732.73705603649
 21
-2970.306365726874
 31
0.0
  0
LINE
  5
2353C
330
23513
100
AcDbEntity
  8
7模芯座
 62
     0
100
AcDbLine
 10
-19732.73705603649
 20
-2970.306365726874
 30
0.0
 11
-19730.73705603648
 21
-2970.306365726874
 31
0.0
  0
LINE
  5
2353D
330
23513
100
AcDbEntity
  8
7模芯座
 62
     0
100
AcDbLine
 10
-19732.73705603649
 20
-2660.306365726874
 30
0.0
 11
-19730.73705603648
 21
-2660.306365726874
 31
0.0
  0
LWPOLYLINE
  5
2353E
102
{ACAD_REACTORS
330
23536
330
23533
330
23530
330
2352D
330
2352A
330
23527
102
}
330
23513
100
AcDbEntity
  8
7模芯座
 62
     0
100
AcDbPolyline
 90
       12
 70
     1
 43
0.0
 10
-19362.24200067145
 20
-2950.306365726874
 42
0.4142135623730951
 10
-19342.24200067145
 20
-2970.306365726874
 10
-19122.24200067145
 20
-2970.306365726874
 42
0.4142135623730951
 10
-19102.24200067145
 20
-2950.306365726874
 10
-19102.24200067145
 20
-2680.306365726876
 42
0.4142135623730915
 10
-19122.24200067145
 20
-2660.306365726876
 10
-19169.51042967247
 20
-2660.306365726876
 42
0.6631300905896233
 10
-19183.84907447224
 20
-2694.24922286973
 42
-2.367229094301087
 10
-19280.63492687066
 20
-2694.24922286973
 42
0.6631300905896233
 10
-19294.97357167044
 20
-2660.306365726874
 10
-19342.24200067145
 20
-2660.306365726876
 42
0.4142135623730913
 10
-19362.24200067145
 20
-2680.306365726876
  0
LINE
  5
2353F
330
23513
100
AcDbEntity
  8
0
 62
     0
100
AcDbLine
 10
-19795.54397828074
 20
-1667.177007028223
 30
0.0
 11
-18984.14429828073
 21
-1667.177007028223
 31
0.0
  0
LINE
  5
23540
330
23513
100
AcDbEntity
  8
0
 62
     0
100
AcDbLine
 10
-19795.54397828074
 20
-1702.013487028225
 30
0.0
 11
-19663.22876903024
 21
-1702.013487028225
 31
0.0
  0
LINE
  5
23541
330
23513
100
AcDbEntity
  8
0
 62
     0
100
AcDbLine
 10
-19663.22876903024
 20
-1702.013487028225
 30
0.0
 11
-19663.22876903024
 21
-1667.177007028223
 31
0.0
  0
LINE
  5
23542
330
23513
100
AcDbEntity
  8
0
 62
     0
100
AcDbLine
 10
-18972.85870989637
 20
-1655.01003602952
 30
0.0
 11
-19829.25550989637
 21
-1655.01003602952
 31
0.0
  0
MTEXT
  5
23543
330
23513
100
AcDbEntity
  8
0
 62
     0
100
AcDbMText
 10
-19292.57502588785
 20
-2122.593515637918
 30
0.0
 40
13.78943999999999
 41
143.4363955690841
 46
0.0
 71
     1
 72
     5
  1
A 01{\fSimSun|b0|i0|c134|p54;消音胶\P   (四侧)}
 73
     1
 44
1.0
  0
LINE
  5
23544
330
23513
100
AcDbEntity
  8
0
 62
     0
100
AcDbLine
 10
-18984.14429828073
 20
-1667.177007028223
 30
0.0
 11
-18984.14429828073
 21
-2247.785007028224
 31
0.0
  0
LINE
  5
23545
330
23513
100
AcDbEntity
  8
0
 62
     0
100
AcDbLine
 10
-18984.14429828073
 20
-2247.785007028224
 30
0.0
 11
-19795.54397828074
 21
-2247.785007028224
 31
0.0
  0
LINE
  5
23546
330
23513
100
AcDbEntity
  8
0
 62
     0
100
AcDbLine
 10
-19320.89693828073
 20
-2229.913887954566
 30
0.0
 11
-19506.69149828073
 21
-2229.913887954566
 31
0.0
  0
LINE
  5
23547
330
23513
100
AcDbEntity
  8
0
 62
     0
100
AcDbLine
 10
-19320.89693828073
 20
-2212.495647954567
 30
0.0
 11
-19506.69149828073
 21
-2212.495647954567
 31
0.0
  0
LINE
  5
23548
330
23513
100
AcDbEntity
  8
0
 62
     0
100
AcDbLine
 10
-19320.89693828073
 20
-2195.077407954566
 30
0.0
 11
-19506.69149828073
 21
-2195.077407954566
 31
0.0
  0
LINE
  5
23549
330
23513
100
AcDbEntity
  8
0
 62
     0
100
AcDbLine
 10
-19320.89693828073
 20
-2177.659167954567
 30
0.0
 11
-19506.69149828073
 21
-2177.659167954567
 31
0.0
  0
LINE
  5
2354A
330
23513
100
AcDbEntity
  8
0
 62
     0
100
AcDbLine
 10
-19140.90845828073
 20
-2105.083167954566
 30
0.0
 11
-19140.90845828073
 21
-2247.332127954566
 31
0.0
  0
LINE
  5
2354B
330
23513
100
AcDbEntity
  8
0
 62
     0
100
AcDbLine
 10
-18984.14429828073
 20
-2105.083167954566
 30
0.0
 11
-19506.69149828073
 21
-2105.083167954566
 31
0.0
  0
LINE
  5
2354C
330
23513
100
AcDbEntity
  8
0
 62
     0
100
AcDbLine
 10
-19320.89693828073
 20
-2105.083167954566
 30
0.0
 11
-19320.89693828073
 21
-2247.332127954566
 31
0.0
  0
LINE
  5
2354D
330
23513
100
AcDbEntity
  8
0
 62
     0
100
AcDbLine
 10
-18984.14429828073
 20
-2151.531807954565
 30
0.0
 11
-19140.90845828073
 21
-2151.531807954565
 31
0.0
  0
LINE
  5
2354E
330
23513
100
AcDbEntity
  8
0
 62
     0
100
AcDbLine
 10
-18984.14429828073
 20
-2197.980447954567
 30
0.0
 11
-19140.90845828073
 21
-2197.980447954567
 31
0.0
  0
LINE
  5
2354F
330
23513
100
AcDbEntity
  8
0
 62
     0
100
AcDbLine
 10
-19140.90845828073
 20
-2177.659167954567
 30
0.0
 11
-19320.89693828073
 21
-2177.659167954567
 31
0.0
  0
LINE
  5
23550
330
23513
100
AcDbEntity
  8
0
 62
     0
100
AcDbLine
 10
-19140.90845828073
 20
-2195.077407954566
 30
0.0
 11
-19320.89693828073
 21
-2195.077407954566
 31
0.0
  0
LINE
  5
23551
330
23513
100
AcDbEntity
  8
0
 62
     0
100
AcDbLine
 10
-19140.90845828073
 20
-2224.107807954564
 30
0.0
 11
-19320.89693828073
 21
-2224.107807954564
 31
0.0
  0
LINE
  5
23552
330
23513
100
AcDbEntity
  8
0
 62
     0
100
AcDbLine
 10
-19175.74493828073
 20
-2177.659167954567
 30
0.0
 11
-19175.74493828073
 21
-2224.107807954564
 31
0.0
  0
LINE
  5
23553
330
23513
100
AcDbEntity
  8
0
 62
     0
100
AcDbLine
 10
-19210.58141828073
 20
-2177.659167954567
 30
0.0
 11
-19210.58141828073
 21
-2224.107807954564
 31
0.0
  0
LINE
  5
23554
330
23513
100
AcDbEntity
  8
0
 62
     0
100
AcDbLine
 10
-19251.22397828073
 20
-2177.659167954567
 30
0.0
 11
-19251.22397828073
 21
-2224.107807954564
 31
0.0
  0
LINE
  5
23555
330
23513
100
AcDbEntity
  8
0
 62
     0
100
AcDbLine
 10
-19274.44829828073
 20
-2195.077407954566
 30
0.0
 11
-19274.44829828073
 21
-2224.107807954564
 31
0.0
  0
LINE
  5
23556
330
23513
100
AcDbEntity
  8
0
 62
     0
100
AcDbLine
 10
-19297.67261828073
 20
-2195.077407954566
 30
0.0
 11
-19297.67261828073
 21
-2224.107807954564
 31
0.0
  0
LINE
  5
23557
330
23513
100
AcDbEntity
  8
0
 62
     0
100
AcDbLine
 10
-19230.90269828073
 20
-2224.107807954564
 30
0.0
 11
-19230.90269828073
 21
-2247.332127954566
 31
0.0
  0
LINE
  5
23558
330
23513
100
AcDbEntity
  8
0
 62
     0
100
AcDbLine
 10
-19358.63645828073
 20
-2105.083167954566
 30
0.0
 11
-19358.63645828073
 21
-2177.659167954567
 31
0.0
  0
LINE
  5
23559
330
23513
100
AcDbEntity
  8
0
 62
     0
100
AcDbLine
 10
-19402.18205828073
 20
-2105.083167954566
 30
0.0
 11
-19402.18205828073
 21
-2177.659167954567
 31
0.0
  0
LINE
  5
2355A
330
23513
100
AcDbEntity
  8
0
 62
     0
100
AcDbLine
 10
-19457.33981828073
 20
-2105.083167954566
 30
0.0
 11
-19457.33981828073
 21
-2177.659167954567
 31
0.0
  0
LINE
  5
2355B
330
23513
100
AcDbEntity
  8
0
 62
     0
100
AcDbLine
 10
-19480.56413828073
 20
-2105.083167954566
 30
0.0
 11
-19480.56413828073
 21
-2177.659167954567
 31
0.0
  0
LINE
  5
2355C
330
23513
100
AcDbEntity
  8
0
 62
     0
100
AcDbLine
 10
-19367.34557828073
 20
-2177.659167954567
 30
0.0
 11
-19367.34557828073
 21
-2247.332127954566
 31
0.0
  0
LINE
  5
2355D
330
23513
100
AcDbEntity
  8
0
 62
     0
100
AcDbLine
 10
-19413.79421828073
 20
-2177.659167954567
 30
0.0
 11
-19413.79421828073
 21
-2247.332127954566
 31
0.0
  0
LINE
  5
2355E
330
23513
100
AcDbEntity
  8
0
 62
     0
100
AcDbLine
 10
-19457.33981828073
 20
-2177.659167954567
 30
0.0
 11
-19457.33981828073
 21
-2247.332127954566
 31
0.0
  0
LINE
  5
2355F
330
23513
100
AcDbEntity
  8
0
 62
     0
100
AcDbLine
 10
-19320.89693828073
 20
-2163.143967954567
 30
0.0
 11
-19506.69149828073
 21
-2163.143967954567
 31
0.0
  0
LINE
  5
23560
330
23513
100
AcDbEntity
  8
0
 62
     0
100
AcDbLine
 10
-19320.89693828073
 20
-2148.628767954566
 30
0.0
 11
-19506.69149828073
 21
-2148.628767954566
 31
0.0
  0
LINE
  5
23561
330
23513
100
AcDbEntity
  8
0
 62
     0
100
AcDbLine
 10
-19320.89693828073
 20
-2134.113567954566
 30
0.0
 11
-19506.69149828073
 21
-2134.113567954566
 31
0.0
  0
LINE
  5
23562
330
23513
100
AcDbEntity
  8
0
 62
     0
100
AcDbLine
 10
-19320.89693828073
 20
-2119.598367954568
 30
0.0
 11
-19506.69149828073
 21
-2119.598367954568
 31
0.0
  0
TEXT
  5
23563
330
23513
100
AcDbEntity
  8
0
 62
     0
100
AcDbText
 10
-19504.13028310219
 20
-2174.523823388662
 30
0.0
 40
7.2576
  1
标记
 41
0.7000000000000001
  7
arial_ttf
 11
-19504.13028310219
 21
-2167.266223388662
 31
0.0
100
AcDbText
 73
     3
  0
TEXT
  5
23564
330
23513
100
AcDbEntity
  8
0
 62
     0
100
AcDbText
 10
-19479.70749268591
 20
-2174.004189550015
 30
0.0
 40
7.2576
  1
处数
 41
0.7000000000000001
  7
arial_ttf
 11
-19479.70749268591
 21
-2166.746589550015
 31
0.0
100
AcDbText
 73
     3
  0
TEXT
  5
23565
330
23513
100
AcDbEntity
  8
0
 62
     0
100
AcDbText
 10
-19450.63108816656
 20
-2174.004189550015
 30
0.0
 40
7.2576
  1
更改文件号
 41
0.7000000000000001
  7
arial_ttf
 11
-19450.63108816656
 21
-2166.746589550015
 31
0.0
100
AcDbText
 73
     3
  0
TEXT
  5
23566
330
23513
100
AcDbEntity
  8
0
 62
     0
100
AcDbText
 10
-19396.04644466422
 20
-2174.004189550015
 30
0.0
 40
7.2576
  1
签  字
 41
0.7000000000000001
  7
arial_ttf
 11
-19396.04644466422
 21
-2166.746589550015
 31
0.0
100
AcDbText
 73
     3
  0
TEXT
  5
23567
330
23513
100
AcDbEntity
  8
0
 62
     0
100
AcDbText
 10
-19355.51500524996
 20
-2174.004189550015
 30
0.0
 40
7.2576
  1
日  期
 41
0.7000000000000001
  7
arial_ttf
 11
-19355.51500524996
 21
-2166.746589550015
 31
0.0
100
AcDbText
 73
     3
  0
TEXT
  5
23568
330
23513
100
AcDbEntity
  8
0
 62
     0
100
AcDbText
 10
-19498.93394471575
 20
-2191.152106225273
 30
0.0
 40
7.2576
  1
设  计
 41
0.7000000000000001
  7
arial_ttf
 11
-19498.93394471575
 21
-2183.894506225273
 31
0.0
100
AcDbText
 73
     3
  0
TEXT
  5
23569
330
23513
100
AcDbEntity
  8
0
 62
     0
100
AcDbText
 10
-19498.93394471575
 20
-2208.300022900529
 30
0.0
 40
7.2576
  1
校  对
 41
0.7000000000000001
  7
arial_ttf
 11
-19498.93394471575
 21
-2201.042422900529
 31
0.0
100
AcDbText
 73
     3
  0
TEXT
  5
2356A
330
23513
100
AcDbEntity
  8
0
 62
     0
100
AcDbText
 10
-19499.4535785544
 20
-2225.447939575786
 30
0.0
 40
7.2576
  1
审  核
 41
0.7000000000000001
  7
arial_ttf
 11
-19499.4535785544
 21
-2218.190339575786
 31
0.0
100
AcDbText
 73
     3
  0
TEXT
  5
2356B
330
23513
100
AcDbEntity
  8
0
 62
     0
100
AcDbText
 10
-19499.4535785544
 20
-2243.115490089687
 30
0.0
 40
7.2576
  1
工  艺
 41
0.7000000000000001
  7
arial_ttf
 11
-19499.4535785544
 21
-2235.857890089687
 31
0.0
100
AcDbText
 73
     3
  0
TEXT
  5
2356C
330
23513
100
AcDbEntity
  8
0
 62
     0
100
AcDbText
 10
-19406.95875527574
 20
-2190.632472386628
 30
0.0
 40
7.2576
  1
标准化
 41
0.7000000000000001
  7
arial_ttf
 11
-19406.95875527574
 21
-2183.374872386628
 31
0.0
100
AcDbText
 73
     3
  0
TEXT
  5
2356D
330
23513
100
AcDbEntity
  8
0
 62
     0
100
AcDbText
 10
-19405.91948759845
 20
-2208.300022900529
 30
0.0
 40
7.2576
  1
审  定
 41
0.7000000000000001
  7
arial_ttf
 11
-19405.91948759845
 21
-2201.042422900529
 31
0.0
100
AcDbText
 73
     3
  0
TEXT
  5
2356E
330
23513
100
AcDbEntity
  8
0
 62
     0
100
AcDbText
 10
-19406.95875527574
 20
-2241.556588573753
 30
0.0
 40
7.2576
  1
日  期
 41
0.7000000000000001
  7
arial_ttf
 11
-19406.95875527574
 21
-2234.298988573753
 31
0.0
100
AcDbText
 73
     3
  0
LINE
  5
2356F
330
23513
100
AcDbEntity
  8
0
 62
     0
100
AcDbLine
 10
-19362.92907652941
 20
-2186.273035420516
 30
0.0
 11
-19326.59352785496
 21
-2186.273035420516
 31
0.0
  0
LINE
  5
23570
330
23513
100
AcDbEntity
  8
0
 62
     0
100
AcDbLine
 10
-19344.93570680992
 20
-2188.760290240493
 30
0.0
 11
-19344.93570680992
 21
-2183.78578060054
 31
0.0
  0
LINE
  5
23571
330
23513
100
AcDbEntity
  8
0
 62
     0
100
AcDbLine
 10
-19344.93570680992
 20
-2183.78578060054
 30
0.0
 11
-19360.29180178544
 21
-2181.406667294472
 31
0.0
  0
LINE
  5
23572
330
23513
100
AcDbEntity
  8
0
 62
     0
100
AcDbLine
 10
-19360.29180178544
 20
-2181.406667294472
 30
0.0
 11
-19360.29180178544
 21
-2191.139403546559
 31
0.0
  0
LINE
  5
23573
330
23513
100
AcDbEntity
  8
0
 62
     0
100
AcDbLine
 10
-19360.29180178544
 20
-2191.139403546559
 30
0.0
 11
-19344.93570680992
 21
-2188.760290240493
 31
0.0
  0
CIRCLE
  5
23574
330
23513
100
AcDbEntity
  8
0
 62
     0
100
AcDbCircle
 10
-19333.08201868968
 20
-2186.273035420516
 30
0.0
 40
4.866368126042892
  0
CIRCLE
  5
23575
330
23513
100
AcDbEntity
  8
0
 62
     0
100
AcDbCircle
 10
-19333.08201868968
 20
-2186.273035420516
 30
0.0
 40
2.487254819977497
  0
LINE
  5
23576
330
23513
100
AcDbEntity
  8
0
 62
     0
100
AcDbLine
 10
-19333.08201868968
 20
-2179.676403071879
 30
0.0
 11
-19333.08201868968
 21
-2193.085950796975
 31
0.0
  0
TEXT
  5
23577
330
23513
100
AcDbEntity
  8
0
 62
     0
100
AcDbText
 10
-19313.32845279653
 20
-2189.769990913713
 30
0.0
 40
7.2576
  1
图 样 标 记
 41
0.7000000000000001
  7
arial_ttf
 11
-19313.32845279653
 21
-2182.512390913713
 31
0.0
100
AcDbText
 73
     3
  0
TEXT
  5
23578
330
23513
100
AcDbEntity
  8
0
 62
     0
100
AcDbText
 10
-19205.89075870549
 20
-2191.112962089851
 30
0.0
 40
7.2576
  1
重 量
 41
0.7000000000000001
  7
arial_ttf
 11
-19205.89075870549
 21
-2183.855362089851
 31
0.0
100
AcDbText
 73
     3
  0
TEXT
  5
23579
330
23513
100
AcDbEntity
  8
0
 62
     0
100
AcDbText
 10
-19171.980736508
 20
-2190.441476501782
 30
0.0
 40
7.2576
  1
比 例
 41
0.7000000000000001
  7
arial_ttf
 11
-19171.980736508
 21
-2183.183876501782
 31
0.0
100
AcDbText
 73
     3
  0
TEXT
  5
2357A
330
23513
100
AcDbEntity
  8
0
 62
     0
100
AcDbText
 10
-19309.63528206216
 20
-2240.467152812923
 30
0.0
 40
7.2576
  1
共             页
 41
0.7000000000000001
  7
arial_ttf
 11
-19309.63528206216
 21
-2233.209552812923
 31
0.0
100
AcDbText
 73
     3
  0
TEXT
  5
2357B
330
23513
100
AcDbEntity
  8
0
 62
     0
100
AcDbText
 10
-19218.6489848788
 20
-2239.462097368213
 30
0.0
 40
7.2576
  1
第            页
 41
0.7000000000000001
  7
arial_ttf
 11
-19218.6489848788
 21
-2232.204497368213
 31
0.0
100
AcDbText
 73
     3
  0
INSERT
  5
2357C
330
23513
100
AcDbEntity
  8
0
 62
     0
100
AcDbBlockReference
  2
SE13
 10
-20680.17280151202
 20
-2275.705785030816
 30
0.0
 41
2.903040000001054
 42
2.903039999999236
 43
2.903039999999998
  0
LINE
  5
2357D
330
23513
100
AcDbEntity
  8
0
 62
     0
100
AcDbLine
 10
-19506.69149828073
 20
-2105.083167954566
 30
0.0
 11
-19506.69149828073
 21
-2247.046589454367
 31
0.0
  0
LINE
  5
2357E
330
23513
100
AcDbEntity
  8
0
 62
     0
100
AcDbLine
 10
-19829.25550989637
 20
-2258.84235602952
 30
0.0
 11
-18972.85870989637
 21
-2258.84235602952
 31
0.0
  0
LINE
  5
2357F
330
23513
100
AcDbEntity
  8
0
 62
     0
100
AcDbLine
 10
-18972.85870989637
 20
-2258.84235602952
 30
0.0
 11
-18972.85870989637
 21
-1655.01003602952
 31
0.0
  0
MTEXT
  5
23580
330
23513
100
AcDbEntity
  8
0
 62
     0
100
AcDbMText
 10
-19136.80198473421
 20
-2115.145768382254
 30
0.0
 40
9.434879999999996
 41
180.0685105131605
 46
0.0
 71
     1
 72
     5
  1
{\fSimSun|b0|i0|c134|p54;     江门市蓬江区\P新荷不锈钢制品有限公司}
 73
     1
 44
1.0
  0
MTEXT
  5
23581
330
23513
100
AcDbEntity
  8
0
 62
     0
100
AcDbMText
 10
-19094.08913269549
 20
-2212.751891625417
 30
0.0
 40
11.52
 41
59.54358097087911
 46
0.0
 71
     1
 72
     5
  1
{\fSimSun|b0|i0|c134|p54;黑橡胶}
 73
     1
 44
1.0
  0
MTEXT
  5
23582
330
23513
100
AcDbEntity
  8
0
 62
     0
100
AcDbMText
 10
-19102.00703915484
 20
-2163.151582722772
 30
0.0
 40
13.78943999999999
 41
119.3560610445944
 46
0.0
 71
     1
 72
     5
  1
{\fSimSun|b0|i0|c134|p54;平边单盆}
 73
     1
 44
1.0
  0
LINE
  5
23583
330
23513
100
AcDbEntity
  8
0
 62
     0
100
AcDbLine
 10
-19795.54397828074
 20
-2247.785007028224
 30
0.0
 11
-19795.54397828074
 21
-1667.177007028223
 31
0.0
  0
LINE
  5
23584
330
23513
100
AcDbEntity
  8
0
 62
     0
100
AcDbLine
 10
-19829.25550989637
 20
-1655.01003602952
 30
0.0
 11
-19829.25550989637
 21
-2258.84235602952
 31
0.0
  0
LINE
  5
23585
330
23513
100
AcDbEntity
  8
0
 62
     0
100
AcDbLine
 10
-18708.59461979814
 20
-2414.045527424776
 30
0.0
 11
-20135.92261979815
 21
-2414.045527424776
 31
0.0
  0
LINE
  5
23586
330
23513
100
AcDbEntity
  8
0
 62
     0
100
AcDbLine
 10
-19859.21138502127
 20
-2492.384612422619
 30
0.0
 11
-19859.21138502127
 21
-2434.323812422617
 31
0.0
  0
LINE
  5
23587
330
23513
100
AcDbEntity
  8
0
 62
     0
100
AcDbLine
 10
-20079.73673377209
 20
-2492.384612422619
 30
0.0
 11
-19859.21138502127
 21
-2492.384612422619
 31
0.0
  0
LINE
  5
23588
330
23513
100
AcDbEntity
  8
0
 62
     0
100
AcDbLine
 10
-20079.73673377209
 20
-2434.323812422617
 30
0.0
 11
-18727.40393377208
 21
-2434.323812422617
 31
0.0
  0
LINE
  5
23589
330
23513
100
AcDbEntity
  8
0
 62
     0
100
AcDbLine
 10
-20135.92261979815
 20
-2414.045527424776
 30
0.0
 11
-20135.92261979815
 21
-3420.432727424775
 31
0.0
  0
LINE
  5
2358A
330
23513
100
AcDbEntity
  8
0
 62
     0
100
AcDbLine
 10
-20079.73673377209
 20
-3402.003812422619
 30
0.0
 11
-20079.73673377209
 21
-2434.323812422617
 31
0.0
  0
MTEXT
  5
2358B
330
23513
100
AcDbEntity
  8
0
 62
     0
100
AcDbMText
 10
-18923.84183522894
 20
-3260.948105246865
 30
0.0
 40
22.98239999999999
 41
198.9267684076574
 46
0.0
 71
     1
 72
     5
  1
{\fSimSun|b0|i0|c134|p54;平边单盆}
 73
     1
 44
1.0
  0
MTEXT
  5
2358C
330
23513
100
AcDbEntity
  8
0
 62
     0
100
AcDbMText
 10
-18910.64532446334
 20
-3343.615286751272
 30
0.0
 40
19.2
 41
99.23930161813187
 46
0.0
 71
     1
 72
     5
  1
{\fSimSun|b0|i0|c134|p54;黑橡胶}
 73
     1
 44
1.0
  0
MTEXT
  5
2358D
330
23513
100
AcDbEntity
  8
0
 62
     0
100
AcDbMText
 10
-18981.83341119455
 20
-3180.938414679333
 30
0.0
 40
15.7248
 41
300.1141841886008
 46
0.0
 71
     1
 72
     5
  1
{\fSimSun|b0|i0|c134|p54;     江门市蓬江区\P新荷不锈钢制品有限公司}
 73
     1
 44
1.0
  0
LINE
  5
2358E
330
23513
100
AcDbEntity
  8
0
 62
     0
100
AcDbLine
 10
-18708.59461979814
 20
-3420.432727424775
 30
0.0
 11
-18708.59461979814
 21
-2414.045527424776
 31
0.0
  0
LINE
  5
2358F
330
23513
100
AcDbEntity
  8
0
 62
     0
100
AcDbLine
 10
-20135.92261979815
 20
-3420.432727424775
 30
0.0
 11
-18708.59461979814
 21
-3420.432727424775
 31
0.0
  0
LINE
  5
23590
330
23513
100
AcDbEntity
  8
0
 62
     0
100
AcDbLine
 10
-19598.31593377208
 20
-3164.167413966521
 30
0.0
 11
-19598.31593377208
 21
-3400.773116466188
 31
0.0
  0
INSERT
  5
23591
330
23513
100
AcDbEntity
  8
0
 62
     0
100
AcDbBlockReference
  2
SE13
 10
-21554.11810582422
 20
-3448.538442426936
 30
0.0
 41
4.838400000000547
 42
4.838399999998729
 43
4.838400000000547
  0
TEXT
  5
23592
330
23513
100
AcDbEntity
  8
0
 62
     0
100
AcDbText
 10
-19118.2450781022
 20
-3388.132296322599
 30
0.0
 40
12.096
  1
第            页
 41
0.7000000000000001
  7
arial_ttf
 11
-19118.2450781022
 21
-3376.036296322599
 31
0.0
100
AcDbText
 73
     3
  0
TEXT
  5
23593
330
23513
100
AcDbEntity
  8
0
 62
     0
100
AcDbText
 10
-19269.88890674112
 20
-3389.807388730448
 30
0.0
 40
12.096
  1
共             页
 41
0.7000000000000001
  7
arial_ttf
 11
-19269.88890674112
 21
-3377.711388730448
 31
0.0
100
AcDbText
 73
     3
  0
TEXT
  5
23594
330
23513
100
AcDbEntity
  8
0
 62
     0
100
AcDbText
 10
-19040.46466415086
 20
-3306.431261545214
 30
0.0
 40
12.096
  1
比 例
 41
0.7000000000000001
  7
arial_ttf
 11
-19040.46466415086
 21
-3294.335261545214
 31
0.0
100
AcDbText
 73
     3
  0
TEXT
  5
23595
330
23513
100
AcDbEntity
  8
0
 62
     0
100
AcDbText
 10
-19096.98136781334
 20
-3307.550404191996
 30
0.0
 40
12.096
  1
重 量
 41
0.7000000000000001
  7
arial_ttf
 11
-19096.98136781334
 21
-3295.454404191995
 31
0.0
100
AcDbText
 73
     3
  0
TEXT
  5
23596
330
23513
100
AcDbEntity
  8
0
 62
     0
100
AcDbText
 10
-19276.04419129842
 20
-3305.312118898432
 30
0.0
 40
12.096
  1
图 样 标 记
 41
0.7000000000000001
  7
arial_ttf
 11
-19276.04419129842
 21
-3293.216118898432
 31
0.0
100
AcDbText
 73
     3
  0
LINE
  5
23597
330
23513
100
AcDbEntity
  8
0
 62
     0
100
AcDbLine
 10
-19308.96680112033
 20
-3288.489472495375
 30
0.0
 11
-19308.96680112033
 21
-3310.838718703868
 31
0.0
  0
CIRCLE
  5
23598
330
23513
100
AcDbEntity
  8
0
 62
     0
100
AcDbCircle
 10
-19308.96680112033
 20
-3299.483859743104
 30
0.0
 40
4.145424699962496
  0
CIRCLE
  5
23599
330
23513
100
AcDbEntity
  8
0
 62
     0
100
AcDbCircle
 10
-19308.96680112033
 20
-3299.483859743104
 30
0.0
 40
8.11061354340482
  0
LINE
  5
2359A
330
23513
100
AcDbEntity
  8
0
 62
     0
100
AcDbLine
 10
-19354.31643961326
 20
-3307.594473286507
 30
0.0
 11
-19328.72294798739
 21
-3303.629284443063
 31
0.0
  0
LINE
  5
2359B
330
23513
100
AcDbEntity
  8
0
 62
     0
100
AcDbLine
 10
-19354.31643961326
 20
-3291.373246199697
 30
0.0
 11
-19354.31643961326
 21
-3307.594473286507
 31
0.0
  0
LINE
  5
2359C
330
23513
100
AcDbEntity
  8
0
 62
     0
100
AcDbLine
 10
-19328.72294798739
 20
-3295.338435043143
 30
0.0
 11
-19354.31643961326
 21
-3291.373246199697
 31
0.0
  0
LINE
  5
2359D
330
23513
100
AcDbEntity
  8
0
 62
     0
100
AcDbLine
 10
-19328.72294798739
 20
-3303.629284443063
 30
0.0
 11
-19328.72294798739
 21
-3295.338435043143
 31
0.0
  0
LINE
  5
2359E
330
23513
100
AcDbEntity
  8
0
 62
     0
100
AcDbLine
 10
-19358.71189751988
 20
-3299.483859743104
 30
0.0
 11
-19298.15264972912
 21
-3299.483859743104
 31
0.0
  0
TEXT
  5
2359F
330
23513
100
AcDbEntity
  8
0
 62
     0
100
AcDbText
 10
-19432.09469543042
 20
-3391.6231149985
 30
0.0
 40
12.096
  1
日  期
 41
0.7000000000000001
  7
arial_ttf
 11
-19432.09469543042
 21
-3379.5271149985
 31
0.0
100
AcDbText
 73
     3
  0
TEXT
  5
235A0
330
23513
100
AcDbEntity
  8
0
 62
     0
100
AcDbText
 10
-19430.36258263495
 20
-3336.195505543127
 30
0.0
 40
12.096
  1
审  定
 41
0.7000000000000001
  7
arial_ttf
 11
-19430.36258263495
 21
-3324.099505543127
 31
0.0
100
AcDbText
 73
     3
  0
TEXT
  5
235A1
330
23513
100
AcDbEntity
  8
0
 62
     0
100
AcDbText
 10
-19432.09469543042
 20
-3306.749588019957
 30
0.0
 40
12.096
  1
标准化
 41
0.7000000000000001
  7
arial_ttf
 11
-19432.09469543042
 21
-3294.653588019957
 31
0.0
100
AcDbText
 73
     3
  0
TEXT
  5
235A2
330
23513
100
AcDbEntity
  8
0
 62
     0
100
AcDbText
 10
-19586.25273422819
 20
-3394.221284191721
 30
0.0
 40
12.096
  1
工  艺
 41
0.7000000000000001
  7
arial_ttf
 11
-19586.25273422819
 21
-3382.125284191721
 31
0.0
100
AcDbText
 73
     3
  0
TEXT
  5
235A3
330
23513
100
AcDbEntity
  8
0
 62
     0
100
AcDbText
 10
-19586.25273422819
 20
-3364.775366668553
 30
0.0
 40
12.096
  1
审  核
 41
0.7000000000000001
  7
arial_ttf
 11
-19586.25273422819
 21
-3352.679366668553
 31
0.0
100
AcDbText
 73
     3
  0
TEXT
  5
235A4
330
23513
100
AcDbEntity
  8
0
 62
     0
100
AcDbText
 10
-19585.38667783044
 20
-3336.195505543126
 30
0.0
 40
12.096
  1
校  对
 41
0.7000000000000001
  7
arial_ttf
 11
-19585.38667783044
 21
-3324.099505543125
 31
0.0
100
AcDbText
 73
     3
  0
TEXT
  5
235A5
330
23513
100
AcDbEntity
  8
0
 62
     0
100
AcDbText
 10
-19585.38667783044
 20
-3307.6156444177
 30
0.0
 40
12.096
  1
设  计
 41
0.7000000000000001
  7
arial_ttf
 11
-19585.38667783044
 21
-3295.519644417701
 31
0.0
100
AcDbText
 73
     3
  0
TEXT
  5
235A6
330
23513
100
AcDbEntity
  8
0
 62
     0
100
AcDbText
 10
-19346.35511205415
 20
-3279.03578329227
 30
0.0
 40
12.096
  1
日  期
 41
0.7000000000000001
  7
arial_ttf
 11
-19346.35511205415
 21
-3266.93978329227
 31
0.0
100
AcDbText
 73
     3
  0
TEXT
  5
235A7
330
23513
100
AcDbEntity
  8
0
 62
     0
100
AcDbText
 10
-19413.90751107789
 20
-3279.03578329227
 30
0.0
 40
12.096
  1
签  字
 41
0.7000000000000001
  7
arial_ttf
 11
-19413.90751107789
 21
-3266.93978329227
 31
0.0
100
AcDbText
 73
     3
  0
TEXT
  5
235A8
330
23513
100
AcDbEntity
  8
0
 62
     0
100
AcDbText
 10
-19504.88191691513
 20
-3279.03578329227
 30
0.0
 40
12.096
  1
更改文件号
 41
0.7000000000000001
  7
arial_ttf
 11
-19504.88191691513
 21
-3266.93978329227
 31
0.0
100
AcDbText
 73
     3
  0
TEXT
  5
235A9
330
23513
100
AcDbEntity
  8
0
 62
     0
100
AcDbText
 10
-19553.34259111405
 20
-3279.03578329227
 30
0.0
 40
12.096
  1
处数
 41
0.7000000000000001
  7
arial_ttf
 11
-19553.34259111405
 21
-3266.93978329227
 31
0.0
100
AcDbText
 73
     3
  0
TEXT
  5
235AA
330
23513
100
AcDbEntity
  8
0
 62
     0
100
AcDbText
 10
-19594.04724180784
 20
-3279.901839690013
 30
0.0
 40
12.096
  1
标记
 41
0.7000000000000001
  7
arial_ttf
 11
-19594.04724180784
 21
-3267.805839690013
 31
0.0
100
AcDbText
 73
     3
  0
LINE
  5
235AB
330
23513
100
AcDbEntity
  8
0
 62
     0
100
AcDbLine
 10
-19288.65833377208
 20
-3188.359413966524
 30
0.0
 11
-19598.31593377208
 21
-3188.359413966524
 31
0.0
  0
LINE
  5
235AC
330
23513
100
AcDbEntity
  8
0
 62
     0
100
AcDbLine
 10
-19288.65833377208
 20
-3212.551413966521
 30
0.0
 11
-19598.31593377208
 21
-3212.551413966521
 31
0.0
  0
LINE
  5
235AD
330
23513
100
AcDbEntity
  8
0
 62
     0
100
AcDbLine
 10
-19288.65833377208
 20
-3236.74341396652
 30
0.0
 11
-19598.31593377208
 21
-3236.74341396652
 31
0.0
  0
LINE
  5
235AE
330
23513
100
AcDbEntity
  8
0
 62
     0
100
AcDbLine
 10
-19288.65833377208
 20
-3260.935413966521
 30
0.0
 11
-19598.31593377208
 21
-3260.935413966521
 31
0.0
  0
LINE
  5
235AF
330
23513
100
AcDbEntity
  8
0
 62
     0
100
AcDbLine
 10
-19516.06313377208
 20
-3285.127413966522
 30
0.0
 11
-19516.06313377208
 21
-3401.249013966519
 31
0.0
  0
LINE
  5
235B0
330
23513
100
AcDbEntity
  8
0
 62
     0
100
AcDbLine
 10
-19443.48713377208
 20
-3285.127413966522
 30
0.0
 11
-19443.48713377208
 21
-3401.249013966519
 31
0.0
  0
LINE
  5
235B1
330
23513
100
AcDbEntity
  8
0
 62
     0
100
AcDbLine
 10
-19366.07273377208
 20
-3285.127413966522
 30
0.0
 11
-19366.07273377208
 21
-3401.249013966519
 31
0.0
  0
LINE
  5
235B2
330
23513
100
AcDbEntity
  8
0
 62
     0
100
AcDbLine
 10
-19554.77033377206
 20
-3164.167413966521
 30
0.0
 11
-19554.77033377206
 21
-3285.127413966522
 31
0.0
  0
LINE
  5
235B3
330
23513
100
AcDbEntity
  8
0
 62
     0
100
AcDbLine
 10
-19516.06313377208
 20
-3164.167413966521
 30
0.0
 11
-19516.06313377208
 21
-3285.127413966522
 31
0.0
  0
LINE
  5
235B4
330
23513
100
AcDbEntity
  8
0
 62
     0
100
AcDbLine
 10
-19424.13353377208
 20
-3164.167413966521
 30
0.0
 11
-19424.13353377208
 21
-3285.127413966522
 31
0.0
  0
LINE
  5
235B5
330
23513
100
AcDbEntity
  8
0
 62
     0
100
AcDbLine
 10
-19351.55753377207
 20
-3164.167413966521
 30
0.0
 11
-19351.55753377207
 21
-3285.127413966522
 31
0.0
  0
LINE
  5
235B6
330
23513
100
AcDbEntity
  8
0
 62
     0
100
AcDbLine
 10
-19138.66793377208
 20
-3362.541813966518
 30
0.0
 11
-19138.66793377208
 21
-3401.249013966519
 31
0.0
  0
LINE
  5
235B7
330
23513
100
AcDbEntity
  8
0
 62
     0
100
AcDbLine
 10
-19249.95113377208
 20
-3314.15781396652
 30
0.0
 11
-19249.95113377208
 21
-3362.541813966518
 31
0.0
  0
LINE
  5
235B8
330
23513
100
AcDbEntity
  8
0
 62
     0
100
AcDbLine
 10
-19211.24393377208
 20
-3314.15781396652
 30
0.0
 11
-19211.24393377208
 21
-3362.541813966518
 31
0.0
  0
LINE
  5
235B9
330
23513
100
AcDbEntity
  8
0
 62
     0
100
AcDbLine
 10
-19172.53673377208
 20
-3285.127413966522
 30
0.0
 11
-19172.53673377208
 21
-3362.541813966518
 31
0.0
  0
LINE
  5
235BA
330
23513
100
AcDbEntity
  8
0
 62
     0
100
AcDbLine
 10
-19104.79913377208
 20
-3285.127413966522
 30
0.0
 11
-19104.79913377208
 21
-3362.541813966518
 31
0.0
  0
LINE
  5
235BB
330
23513
100
AcDbEntity
  8
0
 62
     0
100
AcDbLine
 10
-19046.73833377208
 20
-3285.127413966522
 30
0.0
 11
-19046.73833377208
 21
-3362.541813966518
 31
0.0
  0
LINE
  5
235BC
330
23513
100
AcDbEntity
  8
0
 62
     0
100
AcDbLine
 10
-18988.67753377207
 20
-3362.541813966518
 30
0.0
 11
-19288.65833377208
 21
-3362.541813966518
 31
0.0
  0
LINE
  5
235BD
330
23513
100
AcDbEntity
  8
0
 62
     0
100
AcDbLine
 10
-18988.67753377207
 20
-3314.15781396652
 30
0.0
 11
-19288.65833377208
 21
-3314.15781396652
 31
0.0
  0
LINE
  5
235BE
330
23513
100
AcDbEntity
  8
0
 62
     0
100
AcDbLine
 10
-18988.67753377207
 20
-3285.127413966522
 30
0.0
 11
-19288.65833377208
 21
-3285.127413966522
 31
0.0
  0
LINE
  5
235BF
330
23513
100
AcDbEntity
  8
0
 62
     0
100
AcDbLine
 10
-18727.40393377208
 20
-3318.996213966522
 30
0.0
 11
-18988.67753377207
 21
-3318.996213966522
 31
0.0
  0
LINE
  5
235C0
330
23513
100
AcDbEntity
  8
0
 62
     0
100
AcDbLine
 10
-18727.40393377208
 20
-3241.581813966519
 30
0.0
 11
-18988.67753377207
 21
-3241.581813966519
 31
0.0
  0
LINE
  5
235C1
330
23513
100
AcDbEntity
  8
0
 62
     0
100
AcDbLine
 10
-19288.65833377208
 20
-3164.167413966521
 30
0.0
 11
-19288.65833377208
 21
-3401.249013966519
 31
0.0
  0
LINE
  5
235C2
330
23513
100
AcDbEntity
  8
0
 62
     0
100
AcDbLine
 10
-18727.40393377208
 20
-3164.167413966521
 30
0.0
 11
-19598.31593377208
 21
-3164.167413966521
 31
0.0
  0
LINE
  5
235C3
330
23513
100
AcDbEntity
  8
0
 62
     0
100
AcDbLine
 10
-18988.67753377207
 20
-3164.167413966521
 30
0.0
 11
-18988.67753377207
 21
-3401.249013966519
 31
0.0
  0
LINE
  5
235C4
330
23513
100
AcDbEntity
  8
0
 62
     0
100
AcDbLine
 10
-19288.65833377208
 20
-3285.127413966522
 30
0.0
 11
-19598.31593377208
 21
-3285.127413966522
 31
0.0
  0
LINE
  5
235C5
330
23513
100
AcDbEntity
  8
0
 62
     0
100
AcDbLine
 10
-19288.65833377208
 20
-3314.15781396652
 30
0.0
 11
-19598.31593377208
 21
-3314.15781396652
 31
0.0
  0
LINE
  5
235C6
330
23513
100
AcDbEntity
  8
0
 62
     0
100
AcDbLine
 10
-19288.65833377208
 20
-3343.18821396652
 30
0.0
 11
-19598.31593377208
 21
-3343.18821396652
 31
0.0
  0
LINE
  5
235C7
330
23513
100
AcDbEntity
  8
0
 62
     0
100
AcDbLine
 10
-19288.65833377208
 20
-3372.218613966519
 30
0.0
 11
-19598.31593377208
 21
-3372.218613966519
 31
0.0
  0
LINE
  5
235C8
330
23513
100
AcDbEntity
  8
0
 62
     0
100
AcDbLine
 10
-18727.40393377208
 20
-3402.003812422619
 30
0.0
 11
-20079.73673377209
 21
-3402.003812422619
 31
0.0
  0
LINE
  5
235C9
330
23513
100
AcDbEntity
  8
0
 62
     0
100
AcDbLine
 10
-18727.40393377208
 20
-2434.323812422617
 30
0.0
 11
-18727.40393377208
 21
-3402.003812422619
 31
0.0
  0
MTEXT
  5
235CA
330
23513
100
AcDbEntity
  8
0
 62
     0
100
AcDbMText
 10
-19257.8510376671
 20
-3205.266810046109
 30
0.0
 40
22.98239999999999
 41
239.060659281807
 46
0.0
 71
     1
 72
     5
  1
A 01{\fSimSun|b0|i0|c134|p54;消音胶\P    (底)}
 73
     1
 44
1.0
  0
ENDBLK
  5
235CC
330
23513
100
AcDbEntity
  8
0
100
AcDbBlockEnd
  0
ENDSEC
  0
SECTION
  2
ENTITIES
  0
LINE
  5
19DBF
330
1F
100
AcDbEntity
  8
0
 62
     0
100
AcDbLine
 10
-26824.40633604934
 20
1420.611405564703
 30
0.0
 11
-26824.40633604934
 21
1507.106318990857
 31
0.0
  0
LINE
  5
19DC0
330
1F
100
AcDbEntity
  8
0
 62
     0
100
AcDbLine
 10
-26169.738327103
 20
1507.106318990857
 30
0.0
 11
-26169.738327103
 21
-42.62336654180399
 31
0.0
  0
LINE
  5
19DE1
330
1F
100
AcDbEntity
  8
0
 62
     0
100
AcDbLine
 10
-27164.19027514843
 20
1507.106318990857
 30
0.0
 11
-26169.738327103
 21
1507.106318990857
 31
0.0
  0
LINE
  5
19DE2
330
1F
100
AcDbEntity
  8
0
 62
     0
100
AcDbLine
 10
-27164.19027514843
 20
1420.611405564703
 30
0.0
 11
-26824.40633604934
 21
1420.611405564703
 31
0.0
  0
LINE
  5
19DE3
330
1F
100
AcDbEntity
  8
0
 62
     0
100
AcDbLine
 10
-27164.19027514843
 20
-42.62336654180399
 30
0.0
 11
-27164.19027514843
 21
1507.106318990857
 31
0.0
  0
LINE
  5
1A3CA
330
1F
100
AcDbEntity
  8
base
 62
     0
100
AcDbLine
 10
-26404.33734617529
 20
1304.348834808182
 30
0.0
 11
-26387.56737138186
 21
1304.348834808183
 31
0.0
  0
ARC
  5
1A3CB
330
1F
100
AcDbEntity
  8
base
 62
     0
100
AcDbCircle
 10
-26404.33734617529
 20
1300.348834808183
 30
0.0
 40
5.2
100
AcDbArc
 50
90.0
 51
176.9999999999966
  0
ARC
  5
1A3CC
330
1F
100
AcDbEntity
  8
base
 62
     0
100
AcDbCircle
 10
-26404.33734617529
 20
1300.348834808183
 30
0.0
 40
4.0
100
AcDbArc
 50
90.0
 51
176.9999999999966
  0
LINE
  5
1A3CD
330
1F
100
AcDbEntity
  8
base
 62
     0
100
AcDbLine
 10
-26380.57031510701
 20
1304.348834808183
 30
0.0
 11
-26404.33734617529
 21
1304.348834808183
 31
0.0
  0
LINE
  5
1A3CE
330
1F
100
AcDbEntity
  8
base
 62
     0
100
AcDbLine
 10
-26409.53021975602
 20
1300.620981780647
 30
0.0
 11
-26419.58903822003
 21
1108.687291751992
 31
0.0
  0
LINE
  5
1A3CF
330
1F
100
AcDbEntity
  8
base
 62
     0
100
AcDbLine
 10
-26408.33186431432
 20
1300.558178633156
 30
0.0
 11
-26418.39068277832
 21
1108.6244886045
 31
0.0
  0
LINE
  5
1A3D0
330
1F
100
AcDbEntity
  8
base
 62
     0
100
AcDbLine
 10
-26968.57031510702
 20
1305.548834808182
 30
0.0
 11
-26380.57031510701
 21
1305.548834808182
 31
0.0
  0
LINE
  5
1A3D1
330
1F
100
AcDbEntity
  8
base
 62
     0
100
AcDbLine
 10
-26968.57031510702
 20
1304.348834808182
 30
0.0
 11
-26944.80328403874
 21
1304.348834808183
 31
0.0
  0
LINE
  5
1A3D2
330
1F
100
AcDbEntity
  8
base
 62
     0
100
AcDbLine
 10
-26940.80876589972
 20
1300.558178633156
 30
0.0
 11
-26930.74994743573
 21
1108.6244886045
 31
0.0
  0
LINE
  5
1A3D3
330
1F
100
AcDbEntity
  8
base
 62
     0
100
AcDbLine
 10
-26939.61041045802
 20
1300.620981780647
 30
0.0
 11
-26929.55159199402
 21
1108.687291751994
 31
0.0
  0
ARC
  5
1A3D4
102
{ACAD_REACTORS
330
1A3DC
102
}
330
1F
100
AcDbEntity
  8
base
 62
     0
100
AcDbCircle
 10
-26944.80328403874
 20
1300.348834808183
 30
0.0
 40
4.0
100
AcDbArc
 50
3.000000000003377
 51
90.0
  0
ARC
  5
1A3D5
330
1F
100
AcDbEntity
  8
base
 62
     0
100
AcDbCircle
 10
-26944.80328403874
 20
1300.348834808183
 30
0.0
 40
5.2
100
AcDbArc
 50
3.000000000003377
 51
90.0
  0
LINE
  5
1A3D6
330
1F
100
AcDbEntity
  8
DIM
 62
     0
100
AcDbLine
 10
-26940.80876589972
 20
1300.558178633154
 30
0.0
 11
-26940.80876589972
 21
1284.562030706152
 31
0.0
  0
DIMENSION
  5
1A3DA
102
{ACAD_XDICTIONARY
360
1A3DB
102
}
102
{ACAD_REACTORS
330
1A3DC
102
}
330
1F
100
AcDbEntity
  8
DIM
 62
     0
100
AcDbDimension
280
     0
  2
*D7
 10
-26944.8032840387
 20
1300.348834808192
 30
0.0
 11
-26984.8164309781
 21
1216.714207247851
 31
0.0
 70
   164
  1
<>(0.15")
 71
     5
 42
3.999999999981809
 73
     0
 74
     0
 75
     0
  3
ISO-25
100
AcDbRadialDimension
 15
-26943.07697129275
 25
1303.957136943963
 35
0.0
 40
0.0
1001
ACAD
1000
DSTYLE
1002
{
1070
   340
1005
1B8EF
1070
    41
1040
10.0
1070
   140
1040
20.0
1070
   141
1040
0.5
1070
   147
1040
3.0
1070
   179
1070
     2
1002
}
  0
LINE
  5
1A3DD
330
1F
100
AcDbEntity
  8
DIM
  6
CENTER
 62
     0
100
AcDbLine
 10
-26614.57031510702
 20
745.0088780298727
 30
0.0
 11
-26734.57031510702
 21
745.0088780298727
 31
0.0
  0
CIRCLE
  5
1A3DE
330
1F
100
AcDbEntity
  8
base
 62
     0
100
AcDbCircle
 10
-26674.57031510702
 20
745.0088780298727
 30
0.0
 40
47.0
  0
LINE
  5
1A3DF
102
{ACAD_REACTORS
330
1A3F4
330
1F124
330
1F140
330
1F15C
102
}
330
1F
100
AcDbEntity
  8
base
 62
     0
100
AcDbLine
 10
-26734.57031510702
 20
1077.548834808182
 30
0.0
 11
-26614.57031510702
 21
1077.548834808182
 31
0.0
  0
LINE
  5
1A3E0
330
1F
100
AcDbEntity
  8
DIM
  6
CENTER
 62
     0
100
AcDbLine
 10
-26674.57031510702
 20
1332.386778186756
 30
0.0
 11
-26674.57031510702
 21
1063.526175398504
 31
0.0
  0
LINE
  5
1A3E1
102
{ACAD_REACTORS
330
1F124
102
}
330
1F
100
AcDbEntity
  8
base
 62
     0
100
AcDbLine
 10
-26905.67633830929
 20
1085.01948511852
 30
0.0
 11
-26734.57031510694
 21
1077.54883480818
 31
0.0
  0
LINE
  5
1A3E2
330
1F
100
AcDbEntity
  8
base
 62
     0
100
AcDbLine
 10
-26905.72868157413
 20
1083.82062725262
 30
0.0
 11
-26735.08886869834
 21
1076.370332124732
 31
0.0
  0
LINE
  5
1A3E3
102
{ACAD_REACTORS
330
1F10C
330
1F15C
102
}
330
1F
100
AcDbEntity
  8
base
 62
     0
100
AcDbLine
 10
-26731.57031510701
 20
1074.548834808182
 30
0.0
 11
-26617.57031510702
 21
1074.548834808181
 31
0.0
  0
LINE
  5
1A3E4
102
{ACAD_REACTORS
330
1F0F4
102
}
330
1F
100
AcDbEntity
  8
base
 62
     0
100
AcDbLine
 10
-26721.74643771058
 20
1070.348834808182
 30
0.0
 11
-26627.39419250346
 21
1070.348834808183
 31
0.0
  0
LINE
  5
1A3E5
102
{ACAD_REACTORS
330
1F140
102
}
330
1F
100
AcDbEntity
  8
base
 62
     0
100
AcDbLine
 10
-26721.57031510701
 20
1071.548834808182
 30
0.0
 11
-26627.57031510702
 21
1071.548834808182
 31
0.0
  0
LINE
  5
1A3E6
102
{ACAD_REACTORS
330
1F10C
102
}
330
1F
100
AcDbEntity
  8
base
 62
     0
100
AcDbLine
 10
-26721.57031510701
 20
1071.548834808182
 30
0.0
 11
-26731.57031510701
 21
1074.548834808182
 31
0.0
  0
LINE
  5
1A3E7
330
1F
100
AcDbEntity
  8
base
 62
     0
100
AcDbLine
 10
-26731.57031510702
 20
1074.548834808182
 30
0.0
 11
-26734.57031510702
 21
1077.548834808182
 31
0.0
  0
LINE
  5
1A3E8
330
1F
100
AcDbEntity
  8
base
 62
     0
100
AcDbLine
 10
-26732.20491438384
 20
1073.486377810159
 30
0.0
 11
-26735.08886869834
 21
1076.370332124666
 31
0.0
  0
LINE
  5
1A3E9
330
1F
100
AcDbEntity
  8
base
 62
     0
100
AcDbLine
 10
-26721.74643771058
 20
1070.348834808182
 30
0.0
 11
-26732.20491438384
 21
1073.486377810159
 31
0.0
  0
LINE
  5
1A3EA
330
1F
100
AcDbEntity
  8
base
 62
     0
100
AcDbLine
 10
-26627.39419250346
 20
1070.348834808182
 30
0.0
 11
-26616.9357158302
 21
1073.486377810159
 31
0.0
  0
LINE
  5
1A3EB
330
1F
100
AcDbEntity
  8
base
 62
     0
100
AcDbLine
 10
-26616.9357158302
 20
1073.486377810159
 30
0.0
 11
-26614.0517615157
 21
1076.370332124666
 31
0.0
  0
LINE
  5
1A3EC
330
1F
100
AcDbEntity
  8
base
 62
     0
100
AcDbLine
 10
-26617.57031510702
 20
1074.548834808182
 30
0.0
 11
-26614.57031510702
 21
1077.548834808182
 31
0.0
  0
LINE
  5
1A3ED
330
1F
100
AcDbEntity
  8
base
 62
     0
100
AcDbLine
 10
-26627.57031510702
 20
1071.548834808182
 30
0.0
 11
-26617.57031510703
 21
1074.548834808182
 31
0.0
  0
LINE
  5
1A3EE
330
1F
100
AcDbEntity
  8
base
 62
     0
100
AcDbLine
 10
-26443.41194863992
 20
1083.82062725262
 30
0.0
 11
-26614.0517615157
 21
1076.370332124732
 31
0.0
  0
LINE
  5
1A3EF
330
1F
100
AcDbEntity
  8
base
 62
     0
100
AcDbLine
 10
-26443.46429190476
 20
1085.01948511852
 30
0.0
 11
-26614.5703151071
 21
1077.54883480818
 31
0.0
  0
DIMENSION
  5
1A3F2
102
{ACAD_XDICTIONARY
360
1A3F3
102
}
102
{ACAD_REACTORS
330
1A3F4
102
}
330
1F
100
AcDbEntity
  8
DIM
 62
     0
100
AcDbDimension
280
     0
  2
*D5
 10
-27049.37573907645
 20
1077.548834808182
 30
0.0
 11
-27065.48624385134
 21
1191.548834808178
 31
0.0
 70
    32
  1
<>(9")
 71
     5
 42
228.0
 73
     0
 74
     0
 75
     0
  3
ISO-25
100
AcDbAlignedDimension
 13
-26968.57031510702
 23
1305.548834808182
 33
0.0
 14
-26731.44094440975
 24
1077.548834808182
 34
0.0
 50
90.0
100
AcDbRotatedDimension
1001
ACAD
1000
DSTYLE
1002
{
1070
   340
1005
1B8EF
1070
    41
1040
10.0
1070
   140
1040
20.0
1070
   141
1040
0.5
1070
   147
1040
3.0
1070
   179
1070
     2
1002
}
  0
ARC
  5
1A3FB
330
1F
100
AcDbEntity
  8
base
 62
     0
100
AcDbCircle
 10
-26914.87031510702
 20
846.8088780298712
 30
0.0
 40
26.20000000000073
100
AcDbArc
 50
89.99999999999204
 51
179.999999999997
  0
LINE
  5
1A3FC
330
1F
100
AcDbEntity
  8
base
 62
     0
100
AcDbLine
 10
-26914.87031510702
 20
873.0088780298729
 30
0.0
 11
-26434.27031510702
 21
873.0088780298729
 31
0.0
  0
ARC
  5
1A3FD
330
1F
100
AcDbEntity
  8
base
 62
     0
100
AcDbCircle
 10
-26434.27031510702
 20
846.8088780298721
 30
0.0
 40
26.20000000000073
100
AcDbArc
 50
0.0000000000019889
 51
90.0
  0
ARC
  5
1A3FE
102
{ACAD_REACTORS
330
1A404
102
}
330
1F
100
AcDbEntity
  8
base
 62
     0
100
AcDbCircle
 10
-26904.58585362515
 20
1109.995690658066
 30
0.0
 40
25.0
100
AcDbArc
 50
182.9999999999998
 51
267.5000000000001
  0
ARC
  5
1A3FF
330
1F
100
AcDbEntity
  8
base
 62
     0
100
AcDbCircle
 10
-26444.55477658889
 20
1109.995690658066
 30
0.0
 40
25.0
100
AcDbArc
 50
272.5
 51
357.0000000000002
  0
ARC
  5
1A400
330
1F
100
AcDbEntity
  8
base
 62
     0
100
AcDbCircle
 10
-26444.55477658889
 20
1109.995690658066
 30
0.0
 40
26.2
100
AcDbArc
 50
272.5
 51
357.0000000000002
  0
ARC
  5
1A401
330
1F
100
AcDbEntity
  8
base
 62
     0
100
AcDbCircle
 10
-26904.58585362515
 20
1109.995690658066
 30
0.0
 40
26.2
100
AcDbArc
 50
182.9999999999998
 51
267.5000000000001
  0
DIMENSION
  5
1A402
102
{ACAD_XDICTIONARY
360
1A403
102
}
102
{ACAD_REACTORS
330
1A404
102
}
330
1F
100
AcDbEntity
  8
DIM
 62
     0
100
AcDbDimension
280
     0
  2
*D4
 10
-26904.58585362516
 20
1109.995690658068
 30
0.0
 11
-26883.31031480811
 21
1128.198752160095
 31
0.0
 70
   164
  1
<>(1")
 71
     5
 42
24.99999999996726
 73
     0
 74
     0
 75
     0
  3
ISO-25
100
AcDbRadialDimension
 15
-26923.58187042604
 25
1093.742957174159
 35
0.0
 40
0.0
1001
ACAD
1000
DSTYLE
1002
{
1070
   340
1005
1B8EF
1070
    41
1040
5.0
1070
   140
1040
15.0
1070
   141
1040
0.5
1070
   147
1040
3.0
1070
   179
1070
     2
1070
   279
1070
     1
1070
   288
1070
     1
1002
}
  0
LINE
  5
1A405
330
1F
100
AcDbEntity
  8
DIM
  6
CENTER
 62
     0
100
AcDbLine
 10
-26968.57031510702
 20
670.0088780298727
 30
0.0
 11
-26380.57031510701
 21
670.008878029873
 31
0.0
  0
LINE
  5
1A406
102
{ACAD_REACTORS
330
1A40D
102
}
330
1F
100
AcDbEntity
  8
DIM
  6
CENTER
 62
     0
100
AcDbLine
 10
-26674.57031510702
 20
900.5088780298738
 30
0.0
 11
-26674.57031510702
 21
439.5088780298769
 31
0.0
  0
CIRCLE
  5
1A407
102
{ACAD_REACTORS
330
1A40D
102
}
330
1F
100
AcDbEntity
  8
base
 62
     0
100
AcDbCircle
 10
-26674.57031510702
 20
745.0088780298727
 30
0.0
 40
60.0
  0
CIRCLE
  5
1A408
330
1F
100
AcDbEntity
  8
base
 62
     0
100
AcDbCircle
 10
-26674.57031510702
 20
745.0088780298727
 30
0.0
 40
57.0
  0
DIMENSION
  5
1A409
330
1F
100
AcDbEntity
  8
DIM
 62
     0
100
AcDbDimension
280
     0
  2
*D2
 10
-26303.65869102314
 20
873.0088780298764
 30
0.0
 11
-26319.76919579804
 21
670.0088780298731
 31
0.0
 70
    32
  1
<>(16")
 71
     5
 42
405.999999999998
 73
     0
 74
     0
 75
     0
  3
ISO-25
100
AcDbAlignedDimension
 13
-26434.27031510702
 23
467.0088780298782
 33
0.0
 14
-26434.27031510702
 24
873.0088780298766
 34
0.0
 50
90.0
100
AcDbRotatedDimension
1001
ACAD
1000
DSTYLE
1002
{
1070
   340
1005
1B8EF
1070
    41
1040
10.0
1070
   140
1040
20.0
1070
   141
1040
0.5
1070
   147
1040
3.0
1070
   179
1070
     2
1002
}
  0
DIMENSION
  5
1A40B
102
{ACAD_XDICTIONARY
360
1A40C
102
}
102
{ACAD_REACTORS
330
1A40D
102
}
330
1F
100
AcDbEntity
  8
DIM
 62
     0
100
AcDbDimension
280
     0
  2
*D6
 10
-26564.29592239421
 20
670.0088780298754
 30
0.0
 11
-26580.40642716911
 21
620.6036938552463
 31
0.0
 70
    32
  1
<>(3")
 71
     5
 42
74.9999999999975
 73
     0
 74
     0
 75
     0
  3
ISO-25
100
AcDbAlignedDimension
 13
-26614.57031510702
 23
745.0088780298727
 33
0.0
 14
-26674.57031510702
 24
670.0088780298754
 34
0.0
 50
90.0
100
AcDbRotatedDimension
1001
ACAD
1000
DSTYLE
1002
{
1070
   340
1005
1B8EF
1070
    41
1040
10.0
1070
   140
1040
20.0
1070
   141
1040
0.5
1070
   147
1040
3.0
1070
   179
1070
     2
1002
}
  0
DIMENSION
  5
1A40E
330
1F
100
AcDbEntity
  8
DIM
 62
     0
100
AcDbDimension
280
     0
  2
*D1
 10
-26914.87031510702
 20
493.20887802988
 30
0.0
 11
-26839.60368193846
 21
554.0790179300655
 31
0.0
 70
   164
  1
4-R25(1")
 71
     5
 42
26.20000000000073
 73
     0
 74
     0
 75
     0
  3
ISO-25
100
AcDbRadialDimension
 15
-26935.24206912579
 25
476.7336955362333
 35
0.0
 40
0.0
1001
ACAD
1000
DSTYLE
1002
{
1070
   340
1005
1B8EF
1070
    41
1040
10.0
1070
   140
1040
20.0
1070
   141
1040
0.5
1070
   147
1040
3.0
1070
   179
1070
     2
1070
   279
1070
     1
1070
   288
1070
     1
1002
}
  0
ARC
  5
1A419
330
1F
100
AcDbEntity
  8
base
 62
     0
100
AcDbCircle
 10
-26914.87031510702
 20
493.2088780298768
 30
0.0
 40
26.20000000000028
100
AcDbArc
 50
180.0000000000089
 51
270.000000000008
  0
LINE
  5
1A41A
330
1F
100
AcDbEntity
  8
base
 62
     0
100
AcDbLine
 10
-26941.07031510702
 20
493.2088780298726
 30
0.0
 11
-26941.07031510702
 21
846.808878029873
 31
0.0
  0
LINE
  5
1A41B
330
1F
100
AcDbEntity
  8
base
 62
     0
100
AcDbLine
 10
-26408.07031510702
 20
846.808878029873
 30
0.0
 11
-26408.07031510702
 21
493.2088780298726
 31
0.0
  0
ARC
  5
1A41C
330
1F
100
AcDbEntity
  8
base
 62
     0
100
AcDbCircle
 10
-26434.27031510702
 20
493.208878029875
 30
0.0
 40
26.19999999999709
100
AcDbArc
 50
269.9999999999921
 51
359.9999999999949
  0
LINE
  5
1A41D
330
1F
100
AcDbEntity
  8
base
 62
     0
100
AcDbLine
 10
-26434.27031510702
 20
467.0088780298756
 30
0.0
 11
-26914.87031510702
 21
467.0088780298764
 31
0.0
  0
DIMENSION
  5
1A41E
330
1F
100
AcDbEntity
  8
DIM
 62
     0
100
AcDbDimension
280
     0
  2
*D3
 10
-26408.07031510702
 20
366.5065472468532
 30
0.0
 11
-26674.57031510702
 21
382.6170520217509
 31
0.0
 70
    32
  1
<>(21")
 71
     5
 42
532.9999999999963
 73
     0
 74
     0
 75
     0
  3
ISO-25
100
AcDbAlignedDimension
 13
-26941.07031510702
 23
493.2088780298771
 33
0.0
 14
-26408.07031510702
 24
493.2088780298771
 34
0.0
100
AcDbRotatedDimension
1001
ACAD
1000
DSTYLE
1002
{
1070
   340
1005
1B8EF
1070
    41
1040
10.0
1070
   140
1040
20.0
1070
   141
1040
0.5
1070
   147
1040
3.0
1070
   179
1070
     2
1002
}
  0
LINE
  5
1A4D5
330
1F
100
AcDbEntity
  8
base
 62
     0
100
AcDbLine
 10
-26432.57031510702
 20
439.5088780298766
 30
0.0
 11
-26916.57031510702
 21
439.5088780298774
 31
0.0
  0
LINE
  5
1A4D6
102
{ACAD_REACTORS
330
1A50B
102
}
330
1F
100
AcDbEntity
  8
base
 62
     0
100
AcDbLine
 10
-26380.57031510701
 20
848.5088780298736
 30
0.0
 11
-26380.57031510701
 21
491.508878029876
 31
0.0
  0
LINE
  5
1A4D9
102
{ACAD_REACTORS
330
1A50B
102
}
330
1F
100
AcDbEntity
  8
base
 62
     0
100
AcDbLine
 10
-26968.57031510702
 20
491.508878029877
 30
0.0
 11
-26968.57031510702
 21
848.5088780298733
 31
0.0
  0
LINE
  5
1A4DB
330
1F
100
AcDbEntity
  8
base
 62
     0
100
AcDbLine
 10
-26916.57031510702
 20
900.5088780298736
 30
0.0
 11
-26432.57031510701
 21
900.5088780298736
 31
0.0
  0
ARC
  5
1A4DD
102
{ACAD_REACTORS
330
1A547
102
}
330
1F
100
AcDbEntity
  8
base
 62
     0
100
AcDbCircle
 10
-26916.57031510702
 20
848.5088780298736
 30
0.0
 40
52.0
100
AcDbArc
 50
90.0
 51
180.0000000000006
  0
ARC
  5
1A4DE
102
{ACAD_REACTORS
330
1A523
102
}
330
1F
100
AcDbEntity
  8
base
 62
     0
100
AcDbCircle
 10
-26432.57031510701
 20
848.5088780298736
 30
0.0
 40
52.0
100
AcDbArc
 50
0.0
 51
90.0
  0
ARC
  5
1A4DF
102
{ACAD_REACTORS
330
1A523
102
}
330
1F
100
AcDbEntity
  8
base
 62
     0
100
AcDbCircle
 10
-26432.57031510702
 20
491.5088780298765
 30
0.0
 40
52.0
100
AcDbArc
 50
269.9999999999999
 51
359.9999999999994
  0
ARC
  5
1A4E0
330
1F
100
AcDbEntity
  8
base
 62
     0
100
AcDbCircle
 10
-26916.57031510702
 20
491.5088780298773
 30
0.0
 40
52.0
100
AcDbArc
 50
180.0000000000006
 51
269.9999999999999
  0
DIMENSION
  5
1A4F4
102
{ACAD_XDICTIONARY
360
1A501
102
}
102
{ACAD_REACTORS
330
1A50B
102
}
330
1F
100
AcDbEntity
  8
DIM
 62
     0
100
AcDbDimension
280
     0
  2
*D8
 10
-26968.57031510702
 20
287.9838308559629
 30
0.0
 11
-26674.57031510702
 21
304.0943356308607
 31
0.0
 70
    32
  1
<>(23")
 71
     5
 42
588.0
 73
     0
 74
     0
 75
     0
  3
ISO-25
100
AcDbAlignedDimension
 13
-26380.57031510701
 23
491.508878029876
 33
0.0
 14
-26968.57031510702
 24
491.508878029876
 34
0.0
100
AcDbRotatedDimension
1001
ACAD
1000
DSTYLE
1002
{
1070
   340
1005
1B8EF
1070
    41
1040
10.0
1070
   140
1040
20.0
1070
   141
1040
0.5
1070
   147
1040
3.0
1070
   179
1070
     2
1002
}
  0
DIMENSION
  5
1A50C
102
{ACAD_XDICTIONARY
360
1A519
102
}
102
{ACAD_REACTORS
330
1A523
102
}
330
1F
100
AcDbEntity
  8
DIM
 62
     0
100
AcDbDimension
280
     0
  2
*D9
 10
-26224.72169398542
 20
900.5088780298736
 30
0.0
 11
-26240.83219876032
 21
670.0088780298707
 31
0.0
 70
    32
  1
<>(18")
 71
     5
 42
460.999999999997
 73
     0
 74
     0
 75
     0
  3
ISO-25
100
AcDbAlignedDimension
 13
-26432.57031510702
 23
439.5088780298766
 33
0.0
 14
-26432.57031510701
 24
900.5088780298736
 34
0.0
 50
90.0
100
AcDbRotatedDimension
1001
ACAD
1000
DSTYLE
1002
{
1070
   340
1005
1B8EF
1070
    41
1040
10.0
1070
   140
1040
20.0
1070
   141
1040
0.5
1070
   147
1040
3.0
1070
   179
1070
     2
1002
}
  0
DIMENSION
  5
1A536
102
{ACAD_XDICTIONARY
360
1A540
102
}
102
{ACAD_REACTORS
330
1A547
102
}
330
1F
100
AcDbEntity
  8
DIM
 62
     0
100
AcDbDimension
280
     0
  2
*D10
 10
-26916.57031510702
 20
848.5088780298791
 30
0.0
 11
-27001.07277829238
 21
954.2546521173242
 31
0.0
 70
    36
  1
4-<>(2")
 71
     5
 42
51.99999999998908
 73
     0
 74
     0
 75
     0
  3
ISO-25
100
AcDbRadialDimension
 15
-26953.63650821932
 25
884.9793774528443
 35
0.0
 40
0.0
1001
ACAD
1000
DSTYLE
1002
{
1070
   340
1005
1B8EF
1070
    41
1040
10.0
1070
   140
1040
20.0
1070
   141
1040
0.5
1070
   147
1040
3.0
1070
   179
1070
     2
1002
}
  0
LINE
  5
1F0D0
330
1F
100
AcDbEntity
  8
base
 62
     0
100
AcDbLine
 10
-26380.57031510701
 20
1305.548834808182
 30
0.0
 11
-26380.57031510701
 21
1304.348834808183
 31
0.0
  0
LINE
  5
1F0D1
330
1F
100
AcDbEntity
  8
base
 62
     0
100
AcDbLine
 10
-26968.57031510702
 20
1305.548834808182
 30
0.0
 11
-26968.57031510702
 21
1304.348834808182
 31
0.0
  0
DIMENSION
  5
1F0DB
102
{ACAD_XDICTIONARY
360
1F0E9
102
}
102
{ACAD_REACTORS
330
1F0F4
102
}
330
1F
100
AcDbEntity
  8
DIM
 62
     0
100
AcDbDimension
280
     0
  2
*D12
 10
-26627.39419250346
 20
994.4787275548442
 30
0.0
 11
-26555.37645716921
 21
1010.787049519373
 31
0.0
 70
    32
  1
%%c94(3.7")
 71
     5
 42
94.35224520712656
 73
     0
 74
     0
 75
     0
  3
ISO-25
100
AcDbAlignedDimension
 13
-26721.74643771058
 23
1070.348834808182
 33
0.0
 14
-26627.39419250346
 24
1070.348834808183
 34
0.0
100
AcDbRotatedDimension
1001
ACAD
1000
DSTYLE
1002
{
1070
   340
1005
1B8EF
1070
    41
1040
10.0
1070
   140
1040
20.0
1070
   141
1040
0.5
1070
   147
1040
3.0
1070
   179
1070
     2
1002
}
  0
DIMENSION
  5
1F0F5
102
{ACAD_XDICTIONARY
360
1F102
102
}
102
{ACAD_REACTORS
330
1F10C
102
}
330
1F
100
AcDbEntity
  8
DIM
 62
     0
100
AcDbDimension
280
     0
  2
*D13
 10
-26617.57031510702
 20
1112.363399567432
 30
0.0
 11
-26531.23698177369
 21
1112.363399567432
 31
0.0
 70
   160
  1
%%c<>(4.5")
 71
     5
 42
113.9999999999891
 73
     0
 74
     0
 75
     0
  3
ISO-25
100
AcDbAlignedDimension
 13
-26731.57031510701
 23
1074.548834808182
 33
0.0
 14
-26617.57031510702
 24
1074.548834808181
 34
0.0
100
AcDbRotatedDimension
1001
ACAD
1000
DSTYLE
1002
{
1070
   340
1005
1B8EF
1070
    41
1040
10.0
1070
   140
1040
20.0
1070
   141
1040
0.5
1070
   147
1040
3.0
1070
   179
1070
     2
1002
}
  0
DIMENSION
  5
1F10D
102
{ACAD_XDICTIONARY
360
1F11A
102
}
102
{ACAD_REACTORS
330
1F124
102
}
330
1F
100
AcDbEntity
  8
DIM
 62
     0
100
AcDbDimension
280
     0
  2
*D14
 10
-26614.57031510702
 20
1157.536631684517
 30
0.0
 11
-26526.57031510702
 21
1157.536631684517
 31
0.0
 70
   160
  1
%%c<>(4.7")
 71
     5
 42
119.9999999999236
 73
     0
 74
     0
 75
     0
  3
ISO-25
100
AcDbAlignedDimension
 13
-26734.57031510694
 23
1077.54883480818
 33
0.0
 14
-26614.57031510702
 24
1077.548834808182
 34
0.0
100
AcDbRotatedDimension
1001
ACAD
1000
DSTYLE
1002
{
1070
   340
1005
1B8EF
1070
    41
1040
10.0
1070
   140
1040
20.0
1070
   141
1040
0.5
1070
   147
1040
3.0
1070
   179
1070
     2
1002
}
  0
DIMENSION
  5
1F125
102
{ACAD_XDICTIONARY
360
1F134
102
}
102
{ACAD_REACTORS
330
1F140
102
}
330
1F
100
AcDbEntity
  8
DIM
 62
     0
100
AcDbDimension
280
     0
  2
*D15
 10
-26805.77587318782
 20
1071.548834808182
 30
0.0
 11
-26821.88637796271
 21
1000.356474644467
 31
0.0
 70
    32
  1
<>(0.24")
 71
     5
 42
6.0
 73
     0
 74
     0
 75
     0
  3
ISO-25
100
AcDbAlignedDimension
 13
-26734.57031510702
 23
1077.548834808182
 33
0.0
 14
-26721.57031510701
 24
1071.548834808182
 34
0.0
 50
90.0
100
AcDbRotatedDimension
1001
ACAD
1000
DSTYLE
1002
{
1070
   340
1005
1B8EF
1070
    41
1040
10.0
1070
   140
1040
20.0
1070
   141
1040
0.5
1070
   147
1040
3.0
1070
   179
1070
     2
1002
}
  0
DIMENSION
  5
1F141
102
{ACAD_XDICTIONARY
360
1F150
102
}
102
{ACAD_REACTORS
330
1F15C
102
}
330
1F
100
AcDbEntity
  8
DIM
 62
     0
100
AcDbDimension
280
     0
  2
*D16
 10
-26755.36534430412
 20
1074.548834808182
 30
0.0
 11
-26771.47584907902
 21
1003.417866186077
 31
0.0
 70
    32
  1
<>(0.11")
 71
     5
 42
3.0
 73
     0
 74
     0
 75
     0
  3
ISO-25
100
AcDbAlignedDimension
 13
-26734.57031510702
 23
1077.548834808182
 33
0.0
 14
-26731.57031510701
 24
1074.548834808182
 34
0.0
 50
90.0
100
AcDbRotatedDimension
1001
ACAD
1000
DSTYLE
1002
{
1070
   340
1005
1B8EF
1070
    41
1040
10.0
1070
   140
1040
20.0
1070
   141
1040
0.5
1070
   147
1040
3.0
1070
   179
1070
     2
1002
}
  0
MTEXT
  5
25238
330
1F
100
AcDbEntity
  8
0
100
AcDbMText
 10
-27098.61366503424
 20
138.8235301965625
 30
0.0
 40
39.75765188704034
 41
846.2700187384289
 46
116.4331233834751
 71
     1
 72
     5
  1
Lincoln Mini Plus
  7
NewTextStyle_0
 73
     1
 44
1.0
  0
ENDSEC
  0
SECTION
  2
OBJECTS
  0
DICTIONARY
  5
C
330
0
100
AcDbDictionary
281
     1
  3
ACAD_COLOR
350
6B
  3
ACAD_DETAILVIEWSTYLE
350
25234
  3
ACAD_GROUP
350
D
  3
ACAD_LAYOUT
350
1A
  3
ACAD_MATERIAL
350
6A
  3
ACAD_MLEADERSTYLE
350
25230
  3
ACAD_MLINESTYLE
350
17
  3
ACAD_PLOTSETTINGS
350
19
  3
ACAD_PLOTSTYLENAME
350
E
  3
ACAD_SCALELIST
350
2521E
  3
ACAD_SECTIONVIEWSTYLE
350
25232
  3
ACAD_TABLESTYLE
350
2517D
  3
ACAD_VISUALSTYLE
350
2516C
  3
AcadDim
350
1E754
  3
ACDB_RECOMPOSE_DATA
350
25248
  3
AcDbVariableDictionary
350
5E
  3
ASE_INDEX_DICTIONARY
350
236C8
  3
lxx_dict
350
24D88
  0
DICTIONARY
  5
23515
330
23514
100
AcDbDictionary
280
     1
281
     1
  3
ACAD_DIMASSOC
360
23516
  0
DICTIONARY
  5
23518
330
23517
100
AcDbDictionary
280
     1
281
     1
  3
ACAD_DIMASSOC
360
23519
  0
DICTIONARY
  5
2351B
330
2351A
100
AcDbDictionary
280
     1
281
     1
  3
ACAD_DIMASSOC
360
2351C
  0
DICTIONARY
  5
2351E
330
2351D
100
AcDbDictionary
280
     1
281
     1
  3
ACAD_DIMASSOC
360
2351F
  0
DICTIONARY
  5
23526
330
23525
100
AcDbDictionary
280
     1
281
     1
  3
ACAD_DIMASSOC
360
23527
  0
DICTIONARY
  5
23529
330
23528
100
AcDbDictionary
280
     1
281
     1
  3
ACAD_DIMASSOC
360
2352A
  0
DICTIONARY
  5
2352C
330
2352B
100
AcDbDictionary
280
     1
281
     1
  3
ACAD_DIMASSOC
360
2352D
  0
DICTIONARY
  5
2352F
330
2352E
100
AcDbDictionary
280
     1
281
     1
  3
ACAD_DIMASSOC
360
23530
  0
DICTIONARY
  5
23532
330
23531
100
AcDbDictionary
280
     1
281
     1
  3
ACAD_DIMASSOC
360
23533
  0
DICTIONARY
  5
23535
330
23534
100
AcDbDictionary
280
     1
281
     1
  3
ACAD_DIMASSOC
360
23536
  0
DICTIONARY
  5
23538
330
23537
100
AcDbDictionary
280
     1
281
     1
  3
ACAD_DIMASSOC
360
23539
  0
DICTIONARY
  5
1A3DB
330
1A3DA
100
AcDbDictionary
280
     1
281
     1
  3
ACAD_DIMASSOC
360
1A3DC
  0
DICTIONARY
  5
1A3F3
330
1A3F2
100
AcDbDictionary
280
     1
281
     1
  3
ACAD_DIMASSOC
360
1A3F4
  0
DICTIONARY
  5
1A403
330
1A402
100
AcDbDictionary
280
     1
281
     1
  3
ACAD_DIMASSOC
360
1A404
  0
DICTIONARY
  5
1A40C
330
1A40B
100
AcDbDictionary
280
     1
281
     1
  3
ACAD_DIMASSOC
360
1A40D
  0
DICTIONARY
  5
1A501
330
1A4F4
100
AcDbDictionary
280
     1
281
     1
  3
ACAD_DIMASSOC
360
1A50B
  0
DICTIONARY
  5
1A519
330
1A50C
100
AcDbDictionary
280
     1
281
     1
  3
ACAD_DIMASSOC
360
1A523
  0
DICTIONARY
  5
1A540
330
1A536
100
AcDbDictionary
280
     1
281
     1
  3
ACAD_DIMASSOC
360
1A547
  0
DICTIONARY
  5
1F0E9
330
1F0DB
100
AcDbDictionary
280
     1
281
     1
  3
ACAD_DIMASSOC
360
1F0F4
  0
DICTIONARY
  5
1F102
330
1F0F5
100
AcDbDictionary
280
     1
281
     1
  3
ACAD_DIMASSOC
360
1F10C
  0
DICTIONARY
  5
1F11A
330
1F10D
100
AcDbDictionary
280
     1
281
     1
  3
ACAD_DIMASSOC
360
1F124
  0
DICTIONARY
  5
1F134
330
1F125
100
AcDbDictionary
280
     1
281
     1
  3
ACAD_DIMASSOC
360
1F140
  0
DICTIONARY
  5
1F150
330
1F141
100
AcDbDictionary
280
     1
281
     1
  3
ACAD_DIMASSOC
360
1F15C
  0
DICTIONARY
  5
6B
102
{ACAD_REACTORS
330
C
102
}
330
C
100
AcDbDictionary
281
     1
  0
DICTIONARY
  5
25234
102
{ACAD_REACTORS
330
C
102
}
330
C
100
AcDbDictionary
281
     1
  3
Metric50
350
25235
  0
DICTIONARY
  5
D
102
{ACAD_REACTORS
330
C
102
}
330
C
100
AcDbDictionary
281
     1
  0
DICTIONARY
  5
1A
102
{ACAD_REACTORS
330
C
102
}
330
C
100
AcDbDictionary
281
     1
  3
Layout1
350
51
  3
Layout2
350
56
  3
Model
350
22
  0
DICTIONARY
  5
6A
102
{ACAD_REACTORS
330
C
102
}
330
C
100
AcDbDictionary
281
     1
  3
ByBlock
350
2516A
  3
ByLayer
350
25169
  3
Global
350
2516B
  0
DICTIONARY
  5
25230
102
{ACAD_REACTORS
330
C
102
}
330
C
100
AcDbDictionary
281
     1
  3
Standard
350
25231
  0
DICTIONARY
  5
17
102
{ACAD_REACTORS
330
C
102
}
330
C
100
AcDbDictionary
281
     1
  3
Standard
350
18
  0
DICTIONARY
  5
19
102
{ACAD_REACTORS
330
C
102
}
330
C
100
AcDbDictionary
281
     1
  0
ACDBDICTIONARYWDFLT
  5
E
102
{ACAD_REACTORS
330
C
102
}
330
C
100
AcDbDictionary
281
     1
  3
Normal
350
F
100
AcDbDictionaryWithDefault
340
F
  0
DICTIONARY
  5
2521E
102
{ACAD_REACTORS
330
C
102
}
330
C
100
AcDbDictionary
281
     1
  3
A0
350
2521F
  3
A1
350
25220
  3
A2
350
25221
  3
A3
350
25222
  3
A4
350
25223
  3
A5
350
25224
  3
A6
350
25225
  3
A7
350
25226
  3
A8
350
25227
  3
A9
350
25228
  3
B0
350
25229
  3
B1
350
2522A
  3
B2
350
2522B
  3
B3
350
2522C
  3
B4
350
2522D
  3
B5
350
2522E
  3
B6
350
2522F
  0
DICTIONARY
  5
25232
102
{ACAD_REACTORS
330
C
102
}
330
C
100
AcDbDictionary
281
     1
  3
Metric50
350
25233
  0
DICTIONARY
  5
2517D
102
{ACAD_REACTORS
330
C
102
}
330
C
100
AcDbDictionary
281
     1
  3
Standard
350
2517E
  0
DICTIONARY
  5
2516C
102
{ACAD_REACTORS
330
C
102
}
330
C
100
AcDbDictionary
281
     1
  3
2dWireframe
350
25172
  3
3D Hidden
350
25174
  3
3dWireframe
350
25173
  3
Basic
350
25171
  3
Brighten
350
25178
  3
ColorChange
350
2517C
  3
Conceptual
350
25175
  3
Dim
350
25177
  3
EdgeColorOff
350
2521D
  3
Facepattern
350
2517B
  3
Flat
350
2516D
  3
FlatWithEdges
350
2516E
  3
Gouraud
350
2516F
  3
GouraudWithEdges
350
25170
  3
Hidden
350
25215
  3
JitterOff
350
2521B
  3
Linepattern
350
2517A
  3
OverhangOff
350
2521C
  3
Realistic
350
25176
  3
Shaded
350
2521A
  3
Shaded with edges
350
25219
  3
Shades of Gray
350
25216
  3
Sketchy
350
25217
  3
Thicken
350
25179
  3
Wireframe
350
25214
  3
X-Ray
350
25218
  0
XRECORD
  5
1E754
102
{ACAD_REACTORS
330
C
102
}
330
C
100
AcDbXrecord
280
     1
 90
   990106
  3

 60
     0
 61
     0
 62
     1
 63
     3
 64
     0
 65
     0
 66
     0
 67
     3
 68
     1
 69
     0
 70
     0
 71
     0
 72
     0
 40
0.0
170
     0
340
0
  0
XRECORD
  5
25248
102
{ACAD_REACTORS
330
C
102
}
330
C
100
AcDbXrecord
280
     1
 90
        1
330
2517E
  0
DICTIONARY
  5
5E
102
{ACAD_REACTORS
330
C
102
}
330
C
100
AcDbDictionary
281
     1
  3
CANNOSCALE
350
2523E
  3
CMLEADERSTYLE
350
2523A
  3
CTABLESTYLE
350
25210
  3
CVIEWDETAILSTYLE
350
2523B
  3
CVIEWSECTIONSTYLE
350
2523C
  3
DIMASSOC
350
5F
  3
HIDETEXT
350
63
  3
LAYEREVAL
350
25240
  3
LAYERNOTIFY
350
25241
  3
LIGHTINGUNITS
350
2523F
  3
MSLTSCALE
350
2523D
  3
PROJECTNAME
350
1CF
  0
DICTIONARY
  5
236C8
102
{ACAD_REACTORS
330
C
102
}
330
C
100
AcDbDictionary
281
     1
  3
ASEBlockHierarchyIndexRecord
350
236C9
1001
DCO15
1040
1648297358.375
  0
DICTIONARY
  5
24D88
102
{ACAD_REACTORS
330
C
102
}
330
C
100
AcDbDictionary
281
     1
  3
lxx_dimth
350
24D89
  0
DIMASSOC
  5
23516
102
{ACAD_REACTORS
330
23515
102
}
330
23515
100
AcDbDimAssoc
330
23514
 90
        2
 70
     0
 71
     0
  1
AcDbOsnapPointRef
 72
     3
331
23524
 73
     2
 91
        7
 40
0.0
 10
0.0
 20
0.0
 30
0.0
 75
     0
  0
DIMASSOC
  5
23519
102
{ACAD_REACTORS
330
23518
102
}
330
23518
100
AcDbDimAssoc
330
23517
 90
        3
 70
     0
 71
     0
  1
AcDbOsnapPointRef
 72
    13
331
23521
 73
     2
 91
        0
 40
0.0
 10
0.0
 20
0.0
 30
2.000000000000000E+50
 75
     0
  1
AcDbOsnapPointRef
 72
    13
331
23520
 73
     2
 91
        0
 40
0.0
 10
0.0
 20
0.0
 30
2.000000000000000E+50
 75
     0
  0
DIMASSOC
  5
2351C
102
{ACAD_REACTORS
330
2351B
102
}
330
2351B
100
AcDbDimAssoc
330
2351A
 90
        3
 70
     0
 71
     0
  1
AcDbOsnapPointRef
 72
    13
331
23524
 73
     2
 91
        2
 40
0.0
 10
0.0
 20
0.0
 30
2.000000000000000E+50
 75
     0
  1
AcDbOsnapPointRef
 72
     1
331
23524
 73
     2
 91
        6
 40
1.0
 10
0.0
 20
0.0
 30
2.000000000000000E+50
 75
     0
  0
DIMASSOC
  5
2351F
102
{ACAD_REACTORS
330
2351E
102
}
330
2351E
100
AcDbDimAssoc
330
2351D
 90
        3
 70
     0
 71
     0
  1
AcDbOsnapPointRef
 72
    13
331
23524
 73
     2
 91
        4
 40
0.0
 10
0.0
 20
0.0
 30
2.000000000000000E+50
 75
     0
  1
AcDbOsnapPointRef
 72
     1
331
23524
 73
     2
 91
        8
 40
1.0
 10
0.0
 20
0.0
 30
2.000000000000000E+50
 75
     0
  0
DIMASSOC
  5
23527
102
{ACAD_REACTORS
330
23526
102
}
330
23526
100
AcDbDimAssoc
330
23525
 90
        2
 70
     0
 71
     0
  1
AcDbOsnapPointRef
 72
     3
331
2353E
 73
     2
 91
        9
 40
0.0
 10
0.0
 20
0.0
 30
0.0
 75
     0
  0
DIMASSOC
  5
2352A
102
{ACAD_REACTORS
330
23529
102
}
330
23529
100
AcDbDimAssoc
330
23528
 90
        2
 70
     0
 71
     0
  1
AcDbOsnapPointRef
 72
     3
331
2353E
 73
     2
 91
        8
 40
0.0
 10
0.0
 20
0.0
 30
0.0
 75
     0
  0
DIMASSOC
  5
2352D
102
{ACAD_REACTORS
330
2352C
102
}
330
2352C
100
AcDbDimAssoc
330
2352B
 90
        3
 70
     0
 71
     0
  1
AcDbOsnapPointRef
 72
     3
331
2353E
 73
     2
 91
        8
 40
2.370188153706053
 10
0.0
 20
0.0
 30
0.0
 75
     0
  1
AcDbOsnapPointRef
 72
     1
331
2353E
 73
     2
 91
        2
 40
1.0
 10
0.0
 20
0.0
 30
2.000000000000000E+50
 75
     0
  0
DIMASSOC
  5
23530
102
{ACAD_REACTORS
330
2352F
102
}
330
2352F
100
AcDbDimAssoc
330
2352E
 90
        2
 70
     0
 71
     0
  1
AcDbOsnapPointRef
 72
     3
331
2353E
 73
     2
 91
        5
 40
0.0
 10
0.0
 20
0.0
 30
0.0
 75
     0
  0
DIMASSOC
  5
23533
102
{ACAD_REACTORS
330
23532
102
}
330
23532
100
AcDbDimAssoc
330
23531
 90
        3
 70
     0
 71
     0
  1
AcDbOsnapPointRef
 72
    13
331
2353E
 73
     2
 91
        2
 40
0.0
 10
0.0
 20
0.0
 30
2.000000000000000E+50
 75
     0
  1
AcDbOsnapPointRef
 72
     1
331
2353E
 73
     2
 91
       10
 40
1.0
 10
0.0
 20
0.0
 30
2.000000000000000E+50
 75
     0
  0
DIMASSOC
  5
23536
102
{ACAD_REACTORS
330
23535
102
}
330
23535
100
AcDbDimAssoc
330
23534
 90
        3
 70
     0
 71
     0
  1
AcDbOsnapPointRef
 72
     1
331
2353E
 73
     2
 91
       12
 40
1.0
 10
0.0
 20
0.0
 30
2.000000000000000E+50
 75
     0
  1
AcDbOsnapPointRef
 72
    13
331
2353E
 73
     2
 91
        4
 40
0.0
 10
0.0
 20
0.0
 30
2.000000000000000E+50
 75
     0
  0
DIMASSOC
  5
23539
102
{ACAD_REACTORS
330
23538
102
}
330
23538
100
AcDbDimAssoc
330
23537
 90
        3
 70
     0
 71
     0
  1
AcDbOsnapPointRef
 72
    13
331
2353A
 73
     2
 91
        0
 40
0.0
 10
0.0
 20
0.0
 30
2.000000000000000E+50
 75
     0
  1
AcDbOsnapPointRef
 72
    13
331
2353B
 73
     2
 91
        0
 40
0.0
 10
0.0
 20
0.0
 30
2.000000000000000E+50
 75
     0
  0
DIMASSOC
  5
1A3DC
102
{ACAD_REACTORS
330
1A3DB
102
}
330
1A3DB
100
AcDbDimAssoc
330
1A3DA
 90
        2
 70
     0
 71
     0
  1
AcDbOsnapPointRef
 72
     3
331
1A3D4
 73
     2
 91
        0
 40
0.0
 10
0.0
 20
0.0
 30
0.0
 75
     0
  0
DIMASSOC
  5
1A3F4
102
{ACAD_REACTORS
330
1A3F3
102
}
330
1A3F3
100
AcDbDimAssoc
330
1A3F2
 90
        2
 70
     0
 71
     0
  1
AcDbOsnapPointRef
 72
    10
331
1A3DF
 73
     2
 91
        0
 40
0.0260780891438731
 10
0.0
 20
0.0
 30
0.0
 75
     0
  0
DIMASSOC
  5
1A404
102
{ACAD_REACTORS
330
1A403
102
}
330
1A403
100
AcDbDimAssoc
330
1A402
 90
        2
 70
     0
 71
     0
  1
AcDbOsnapPointRef
 72
     3
331
1A3FE
 73
     2
 91
        0
 40
0.0
 10
0.0
 20
0.0
 30
0.0
 75
     0
  0
DIMASSOC
  5
1A40D
102
{ACAD_REACTORS
330
1A40C
102
}
330
1A40C
100
AcDbDimAssoc
330
1A40B
 90
        3
 70
     0
 71
     0
  1
AcDbOsnapPointRef
 72
     5
331
1A407
 73
     2
 91
        0
 40
0.0
 10
0.0
 20
0.0
 30
0.0
 75
     0
  1
AcDbOsnapPointRef
 72
     2
331
1A406
 73
     2
 91
        0
 40
0.5
 10
0.0
 20
0.0
 30
0.0
 75
     0
  0
DIMASSOC
  5
1A50B
102
{ACAD_REACTORS
330
1A501
102
}
330
1A501
100
AcDbDimAssoc
330
1A4F4
 90
        3
 70
     0
 71
     0
  1
AcDbOsnapPointRef
 72
     1
331
1A4D6
 73
     2
 91
        0
 40
1.0
 10
0.0
 20
0.0
 30
2.000000000000000E+50
 75
     0
  1
AcDbOsnapPointRef
 72
     8
331
1A4D9
 73
     2
 91
        0
 40
-0.0000000000000025
 10
0.0
 20
0.0
 30
0.0
 75
     1
  1
AcDbOsnapPointRef
 72
     1
331
1A4D6
 73
     2
 91
        0
 40
1.0
 10
0.0
 20
0.0
 30
2.000000000000000E+50
 75
     0
  0
DIMASSOC
  5
1A523
102
{ACAD_REACTORS
330
1A519
102
}
330
1A519
100
AcDbDimAssoc
330
1A50C
 90
        3
 70
     0
 71
     0
  1
AcDbOsnapPointRef
 72
    13
331
1A4DF
 73
     2
 91
        0
 40
4.712388980384688
 10
0.0
 20
0.0
 30
2.000000000000000E+50
 75
     0
  1
AcDbOsnapPointRef
 72
     1
331
1A4DE
 73
     2
 91
        0
 40
1.570796326794896
 10
0.0
 20
0.0
 30
2.000000000000000E+50
 75
     0
  0
DIMASSOC
  5
1A547
102
{ACAD_REACTORS
330
1A540
102
}
330
1A540
100
AcDbDimAssoc
330
1A536
 90
        2
 70
     0
 71
     0
  1
AcDbOsnapPointRef
 72
     3
331
1A4DD
 73
     2
 91
        0
 40
0.0
 10
0.0
 20
0.0
 30
0.0
 75
     0
  0
DIMASSOC
  5
1F0F4
102
{ACAD_REACTORS
330
1F0E9
102
}
330
1F0E9
100
AcDbDimAssoc
330
1F0DB
 90
        3
 70
     0
 71
     0
  1
AcDbOsnapPointRef
 72
    13
331
1A3E4
 73
     2
 91
        0
 40
0.0
 10
0.0
 20
0.0
 30
2.000000000000000E+50
 75
     0
  1
AcDbOsnapPointRef
 72
     1
331
1A3E4
 73
     2
 91
        0
 40
1.0
 10
0.0
 20
0.0
 30
2.000000000000000E+50
 75
     0
  0
DIMASSOC
  5
1F10C
102
{ACAD_REACTORS
330
1F102
102
}
330
1F102
100
AcDbDimAssoc
330
1F0F5
 90
        3
 70
     0
 71
     0
  1
AcDbOsnapPointRef
 72
     1
331
1A3E6
 73
     2
 91
        0
 40
1.0
 10
0.0
 20
0.0
 30
2.000000000000000E+50
 75
     0
  1
AcDbOsnapPointRef
 72
     1
331
1A3E3
 73
     2
 91
        0
 40
0.9999999999999998
 10
0.0
 20
0.0
 30
2.000000000000000E+50
 75
     0
  0
DIMASSOC
  5
1F124
102
{ACAD_REACTORS
330
1F11A
102
}
330
1F11A
100
AcDbDimAssoc
330
1F10D
 90
        3
 70
     0
 71
     0
  1
AcDbOsnapPointRef
 72
     1
331
1A3E1
 73
     2
 91
        0
 40
1.0
 10
0.0
 20
0.0
 30
2.000000000000000E+50
 75
     0
  1
AcDbOsnapPointRef
 72
     1
331
1A3DF
 73
     2
 91
        0
 40
1.0
 10
0.0
 20
0.0
 30
2.000000000000000E+50
 75
     0
  0
DIMASSOC
  5
1F140
102
{ACAD_REACTORS
330
1F134
102
}
330
1F134
100
AcDbDimAssoc
330
1F125
 90
        3
 70
     0
 71
     0
  1
AcDbOsnapPointRef
 72
    13
331
1A3DF
 73
     2
 91
        0
 40
0.0
 10
0.0
 20
0.0
 30
2.000000000000000E+50
 75
     0
  1
AcDbOsnapPointRef
 72
    13
331
1A3E5
 73
     2
 91
        0
 40
0.0
 10
0.0
 20
0.0
 30
2.000000000000000E+50
 75
     0
  0
DIMASSOC
  5
1F15C
102
{ACAD_REACTORS
330
1F150
102
}
330
1F150
100
AcDbDimAssoc
330
1F141
 90
        3
 70
     0
 71
     0
  1
AcDbOsnapPointRef
 72
    13
331
1A3DF
 73
     2
 91
        0
 40
0.0
 10
0.0
 20
0.0
 30
2.000000000000000E+50
 75
     0
  1
AcDbOsnapPointRef
 72
    13
331
1A3E3
 73
     2
 91
        0
 40
0.0
 10
0.0
 20
0.0
 30
2.000000000000000E+50
 75
     0
  0
ACDBDETAILVIEWSTYLE
  5
25235
102
{ACAD_REACTORS
330
25234
102
}
330
25234
100
AcDbModelDocViewStyle
 70
     0
  3
Metric50
290
     0
100
AcDbDetailViewStyle
 70
     0
 71
     0
 90
        3
 71
     1
340
11
 62
   256
 40
5.0
340
0
 62
   256
 40
5.0
300

 40
0.0
280
     1
 71
     2
340
16
 90
       25
 62
   256
 71
     3
340
11
 62
   256
 40
5.0
 90
        0
 40
15.0
 90
        1
300
%<\AcVar ViewDetailId>% (%<\AcVar ViewScale \f "%sn">%)
 71
     4
340
16
 90
       25
 62
   256
340
16
 90
       25
 62
   256
280
     0
  0
LAYOUT
  5
51
102
{ACAD_REACTORS
330
1A
102
}
330
1A
100
AcDbPlotSettings
  1

  2
None
  4

  6

 40
0.0
 41
0.0
 42
0.0
 43
0.0
 44
0.0
 45
0.0
 46
0.0
 47
0.0
 48
0.0
 49
0.0
140
0.0
141
0.0
142
1.0
143
1.0
 70
   688
 72
     0
 73
     0
 74
     5
  7

 75
    16
147
1.0
 76
     0
 77
     2
 78
   300
148
0.0
149
0.0
100
AcDbLayout
  1
Layout1
 70
     1
 71
     1
 10
0.0
 20
0.0
 11
12.0
 21
9.0
 12
0.0
 22
0.0
 32
0.0
 14
0.0
 24
0.0
 34
0.0
 15
0.0
 25
0.0
 35
0.0
146
0.0
 13
0.0
 23
0.0
 33
0.0
 16
1.0
 26
0.0
 36
0.0
 17
0.0
 27
1.0
 37
0.0
 76
     0
330
50
  0
LAYOUT
  5
56
102
{ACAD_REACTORS
330
1A
102
}
330
1A
100
AcDbPlotSettings
  1

  2
None
  4

  6

 40
0.0
 41
0.0
 42
0.0
 43
0.0
 44
0.0
 45
0.0
 46
0.0
 47
0.0
 48
0.0
 49
0.0
140
0.0
141
0.0
142
1.0
143
1.0
 70
   688
 72
     0
 73
     0
 74
     5
  7

 75
    16
147
1.0
 76
     0
 77
     2
 78
   300
148
0.0
149
0.0
100
AcDbLayout
  1
Layout2
 70
     1
 71
     2
 10
0.0
 20
0.0
 11
12.0
 21
9.0
 12
0.0
 22
0.0
 32
0.0
 14
0.0
 24
0.0
 34
0.0
 15
0.0
 25
0.0
 35
0.0
146
0.0
 13
0.0
 23
0.0
 33
0.0
 16
1.0
 26
0.0
 36
0.0
 17
0.0
 27
1.0
 37
0.0
 76
     0
330
55
  0
LAYOUT
  5
22
102
{ACAD_REACTORS
330
1A
102
}
330
1A
100
AcDbPlotSettings
  1

  2
Canon iP1100 series
  4
A4
  6

 40
4.180416584014891
 41
5.831417560577392
 42
4.180404663085936
 43
3.757080078125
 44
209.9733276367186
 45
296.9683227539062
 46
8.599999999999999
 47
0.0
 48
-27182.34673720091
 49
7097.009593590695
140
-26187.89478915549
141
8646.739279123355
142
1.0
143
5.392618235853578
 70
 11956
 72
     1
 73
     0
 74
     4
  7

 75
     0
147
0.1854386786276395
 76
     0
 77
     2
 78
   300
148
27182.34673720091
149
-7097.009593590695
100
AcDbLayout
  1
Model
 70
     1
 71
     0
 10
0.0
 20
0.0
 11
12.0
 21
9.0
 12
0.0
 22
0.0
 32
0.0
 14
0.0
 24
0.0
 34
0.0
 15
0.0
 25
0.0
 35
0.0
146
0.0
 13
0.0
 23
0.0
 33
0.0
 16
1.0
 26
0.0
 36
0.0
 17
0.0
 27
1.0
 37
0.0
 76
     0
330
1F
331
25167
  0
MATERIAL
  5
2516A
102
{ACAD_REACTORS
330
6A
102
}
330
6A
100
AcDbMaterial
  1
ByBlock
  0
MATERIAL
  5
25169
102
{ACAD_REACTORS
330
6A
102
}
330
6A
100
AcDbMaterial
  1
ByLayer
  0
MATERIAL
  5
2516B
102
{ACAD_REACTORS
330
6A
102
}
330
6A
100
AcDbMaterial
  1
Global
  0
MLEADERSTYLE
  5
25231
102
{ACAD_REACTORS
330
25230
102
}
330
25230
100
AcDbMLeaderStyle
179
     2
170
     2
171
     1
172
     0
 90
        2
 40
0.0
 41
0.0
173
     1
 91
-1056964608
340
14
 92
       -2
290
     1
 42
2.0
291
     1
 43
0.36
  3
Standard
 44
4.0
300

342
11
174
     1
178
     6
175
     1
176
     0
 93
-1056964608
 45
4.0
292
     0
297
     0
 46
4.0
 94
-1056964608
 47
1.0
 49
1.0
140
1.0
293
     1
141
0.0
294
     1
177
     0
142
1.0
295
     0
296
     0
143
0.125
271
     0
272
     9
273
     9
  0
MLINESTYLE
  5
18
102
{ACAD_REACTORS
330
17
102
}
330
17
100
AcDbMlineStyle
  2
STANDARD
 70
     0
  3

 62
   256
 51
90.0
 52
90.0
 71
     2
 49
0.5
 62
   256
  6
BYLAYER
 49
-0.5
 62
   256
  6
BYLAYER
  0
ACDBPLACEHOLDER
  5
F
102
{ACAD_REACTORS
330
E
102
}
330
E
  0
SCALE
  5
2521F
102
{ACAD_REACTORS
330
2521E
102
}
330
2521E
100
AcDbScale
 70
     0
300
1:1
140
1.0
141
1.0
290
     1
  0
SCALE
  5
25220
102
{ACAD_REACTORS
330
2521E
102
}
330
2521E
100
AcDbScale
 70
     0
300
1:2
140
1.0
141
2.0
290
     0
  0
SCALE
  5
25221
102
{ACAD_REACTORS
330
2521E
102
}
330
2521E
100
AcDbScale
 70
     0
300
1:4
140
1.0
141
4.0
290
     0
  0
SCALE
  5
25222
102
{ACAD_REACTORS
330
2521E
102
}
330
2521E
100
AcDbScale
 70
     0
300
1:5
140
1.0
141
5.0
290
     0
  0
SCALE
  5
25223
102
{ACAD_REACTORS
330
2521E
102
}
330
2521E
100
AcDbScale
 70
     0
300
1:8
140
1.0
141
8.0
290
     0
  0
SCALE
  5
25224
102
{ACAD_REACTORS
330
2521E
102
}
330
2521E
100
AcDbScale
 70
     0
300
1:10
140
1.0
141
10.0
290
     0
  0
SCALE
  5
25225
102
{ACAD_REACTORS
330
2521E
102
}
330
2521E
100
AcDbScale
 70
     0
300
1:16
140
1.0
141
16.0
290
     0
  0
SCALE
  5
25226
102
{ACAD_REACTORS
330
2521E
102
}
330
2521E
100
AcDbScale
 70
     0
300
1:20
140
1.0
141
20.0
290
     0
  0
SCALE
  5
25227
102
{ACAD_REACTORS
330
2521E
102
}
330
2521E
100
AcDbScale
 70
     0
300
1:30
140
1.0
141
30.0
290
     0
  0
SCALE
  5
25228
102
{ACAD_REACTORS
330
2521E
102
}
330
2521E
100
AcDbScale
 70
     0
300
1:40
140
1.0
141
40.0
290
     0
  0
SCALE
  5
25229
102
{ACAD_REACTORS
330
2521E
102
}
330
2521E
100
AcDbScale
 70
     0
300
1:50
140
1.0
141
50.0
290
     0
  0
SCALE
  5
2522A
102
{ACAD_REACTORS
330
2521E
102
}
330
2521E
100
AcDbScale
 70
     0
300
1:100
140
1.0
141
100.0
290
     0
  0
SCALE
  5
2522B
102
{ACAD_REACTORS
330
2521E
102
}
330
2521E
100
AcDbScale
 70
     0
300
2:1
140
2.0
141
1.0
290
     0
  0
SCALE
  5
2522C
102
{ACAD_REACTORS
330
2521E
102
}
330
2521E
100
AcDbScale
 70
     0
300
4:1
140
4.0
141
1.0
290
     0
  0
SCALE
  5
2522D
102
{ACAD_REACTORS
330
2521E
102
}
330
2521E
100
AcDbScale
 70
     0
300
8:1
140
8.0
141
1.0
290
     0
  0
SCALE
  5
2522E
102
{ACAD_REACTORS
330
2521E
102
}
330
2521E
100
AcDbScale
 70
     0
300
10:1
140
10.0
141
1.0
290
     0
  0
SCALE
  5
2522F
102
{ACAD_REACTORS
330
2521E
102
}
330
2521E
100
AcDbScale
 70
     0
300
100:1
140
100.0
141
1.0
290
     0
  0
ACDBSECTIONVIEWSTYLE
  5
25233
102
{ACAD_REACTORS
330
25232
102
}
330
25232
100
AcDbModelDocViewStyle
 70
     0
  3
Metric50
290
     0
100
AcDbSectionViewStyle
 70
     0
 71
     0
 90
      102
 71
     1
340
11
 62
   256
 40
5.0
340
0
340
0
 62
   256
 40
5.0
300
I, O, Q, S, X, Z
 40
10.0
 90
        0
 40
2.5
 90
        0
 71
     2
340
16
 90
       25
 62
   256
340
16
 90
       50
 62
   256
 40
5.0
 40
2.5
 40
5.0
 71
     3
340
11
 62
   256
 40
5.0
 90
        0
 40
15.0
 90
        1
300
%<\AcVar ViewSectionStartId>%-%<\AcVar ViewSectionEndId>% (%<\AcVar ViewScale \f "%sn">%)
 71
     4
 62
   256
 62
   257
300
ANSI31
 40
1.0
 90
        0
290
     0
290
     0
 90
        6
 40
0.0
 40
1.570796326794896
 40
0.2617993877991494
 40
1.308996938995747
 40
-0.2617993877991494
 40
1.832595714594046
  0
TABLESTYLE
  5
2517E
102
{ACAD_XDICTIONARY
360
25244
102
}
102
{ACAD_REACTORS
330
2517D
102
}
330
2517D
100
AcDbTableStyle
280
     0
  3
Standard
 70
     0
 71
     0
 40
1.5
 41
1.5
280
     0
281
     0
  7
Standard
140
4.5
170
     2
 62
     0
 63
     7
283
     0
 90
      512
 91
        0
  1

274
    -2
284
     1
 64
     0
275
    -2
285
     1
 65
     0
276
    -2
286
     1
 66
     0
277
    -2
287
     1
 67
     0
278
    -2
288
     1
 68
     0
279
    -2
289
     1
 69
     0
  7
Standard
140
6.0
170
     5
 62
     0
 63
     7
283
     0
 90
      512
 91
        0
  1

274
    -2
284
     1
 64
     0
275
    -2
285
     1
 65
     0
276
    -2
286
     1
 66
     0
277
    -2
287
     1
 67
     0
278
    -2
288
     1
 68
     0
279
    -2
289
     1
 69
     0
  7
Standard
140
4.5
170
     5
 62
     0
 63
     7
283
     0
 90
      512
 91
        0
  1

274
    -2
284
     1
 64
     0
275
    -2
285
     1
 65
     0
276
    -2
286
     1
 66
     0
277
    -2
287
     1
 67
     0
278
    -2
288
     1
 68
     0
279
    -2
289
     1
 69
     0
  0
VISUALSTYLE
  5
25172
102
{ACAD_XDICTIONARY
360
25254
102
}
102
{ACAD_REACTORS
330
2516C
102
}
330
2516C
100
AcDbVisualStyle
  2

 70
     4
177
     2
291
     0
 71
     0
176
     1
 72
     2
176
     1
 73
     0
176
     1
 90
        0
176
     1
 40
0.6
176
     1
 41
30.0
176
     1
 63
     7
421
 16777215
176
     1
 74
     1
176
     1
 91
        4
176
     1
 64
     7
176
     1
 65
   257
176
     1
 75
     1
176
     1
175
     1
176
     1
 42
1.0
176
     1
 92
        0
176
     1
 66
   257
176
     1
 43
1.0
176
     1
 76
     1
176
     1
 77
     6
176
     1
 78
     2
176
     1
 67
     7
176
     1
 79
     5
176
     1
170
     0
176
     1
171
     0
176
     1
290
     0
176
     1
 93
        1
176
     1
 44
0.0
176
     1
173
     0
176
     1
1001
ACAD
1000
AcDbSavedByObjectVersion
1070
     0
  0
VISUALSTYLE
  5
25174
102
{ACAD_XDICTIONARY
360
25258
102
}
102
{ACAD_REACTORS
330
2516C
102
}
330
2516C
100
AcDbVisualStyle
  2

 70
     6
177
     2
291
     0
 71
     1
176
     1
 72
     2
176
     1
 73
     2
176
     1
 90
        0
176
     1
 40
0.6
176
     1
 41
30.0
176
     1
 63
     7
421
 16777215
176
     1
 74
     2
176
     1
 91
        2
176
     1
 64
     7
176
     1
 65
   257
176
     1
 75
     2
176
     1
175
     1
176
     1
 42
40.0
176
     1
 92
        0
176
     1
 66
   257
176
     1
 43
1.0
176
     1
 76
     1
176
     1
 77
     6
176
     1
 78
     2
176
     1
 67
     7
176
     1
 79
     3
176
     1
170
     0
176
     1
171
     0
176
     1
290
     0
176
     1
 93
        1
176
     1
 44
0.0
176
     1
173
     0
176
     1
1001
ACAD
1000
AcDbSavedByObjectVersion
1070
     0
  0
VISUALSTYLE
  5
25173
102
{ACAD_XDICTIONARY
360
25256
102
}
102
{ACAD_REACTORS
330
2516C
102
}
330
2516C
100
AcDbVisualStyle
  2

 70
     5
177
     2
291
     0
 71
     0
176
     1
 72
     2
176
     1
 73
     0
176
     1
 90
        0
176
     1
 40
0.6
176
     1
 41
30.0
176
     1
 63
     7
421
 16777215
176
     1
 74
     1
176
     1
 91
        4
176
     1
 64
     7
176
     1
 65
   257
176
     1
 75
     1
176
     1
175
     1
176
     1
 42
1.0
176
     1
 92
        0
176
     1
 66
   257
176
     1
 43
1.0
176
     1
 76
     1
176
     1
 77
     6
176
     1
 78
     2
176
     1
 67
     7
176
     1
 79
     5
176
     1
170
     0
176
     1
171
     0
176
     1
290
     0
176
     1
 93
        1
176
     1
 44
0.0
176
     1
173
     0
176
     1
1001
ACAD
1000
AcDbSavedByObjectVersion
1070
     0
  0
VISUALSTYLE
  5
25171
102
{ACAD_XDICTIONARY
360
25252
102
}
102
{ACAD_REACTORS
330
2516C
102
}
330
2516C
100
AcDbVisualStyle
  2

 70
     7
177
     2
291
     1
 71
     1
176
     1
 72
     0
176
     1
 73
     1
176
     1
 90
        0
176
     1
 40
0.6
176
     1
 41
30.0
176
     1
 63
     7
421
 16777215
176
     1
 74
     0
176
     1
 91
        4
176
     1
 64
     7
176
     1
 65
   257
176
     1
 75
     1
176
     1
175
     1
176
     1
 42
1.0
176
     1
 92
        8
176
     1
 66
     7
176
     1
 43
1.0
176
     1
 76
     1
176
     1
 77
     6
176
     1
 78
     2
176
     1
 67
     7
176
     1
 79
     5
176
     1
170
     0
176
     1
171
     0
176
     1
290
     0
176
     1
 93
        1
176
     1
 44
0.0
176
     1
173
     0
176
     1
1001
ACAD
1000
AcDbSavedByObjectVersion
1070
     0
  0
VISUALSTYLE
  5
25178
102
{ACAD_XDICTIONARY
360
25260
102
}
102
{ACAD_REACTORS
330
2516C
102
}
330
2516C
100
AcDbVisualStyle
  2

 70
    12
177
     2
291
     1
 71
     2
176
     1
 72
     2
176
     1
 73
     0
176
     1
 90
        0
176
     1
 40
0.6
176
     1
 41
30.0
176
     1
 63
     7
421
 16777215
176
     1
 74
     1
176
     1
 91
        4
176
     1
 64
     7
176
     1
 65
   257
176
     1
 75
     1
176
     1
175
     1
176
     1
 42
1.0
176
     1
 92
        8
176
     1
 66
     7
176
     1
 43
1.0
176
     1
 76
     1
176
     1
 77
     6
176
     1
 78
     2
176
     1
 67
     7
176
     1
 79
     5
176
     1
170
     0
176
     1
171
     0
176
     1
290
     0
176
     1
 93
        1
176
     1
 44
50.0
176
     1
173
     0
176
     1
1001
ACAD
1000
AcDbSavedByObjectVersion
1070
     0
  0
VISUALSTYLE
  5
2517C
102
{ACAD_XDICTIONARY
360
25268
102
}
102
{ACAD_REACTORS
330
2516C
102
}
330
2516C
100
AcDbVisualStyle
  2

 70
    16
177
     2
291
     1
 71
     2
176
     1
 72
     2
176
     1
 73
     3
176
     1
 90
        0
176
     1
 40
0.6
176
     1
 41
30.0
176
     1
 63
     8
421
  8421504
176
     1
 74
     1
176
     1
 91
        4
176
     1
 64
     7
176
     1
 65
   257
176
     1
 75
     1
176
     1
175
     1
176
     1
 42
1.0
176
     1
 92
        8
176
     1
 66
     8
424
  8421504
176
     1
 43
1.0
176
     1
 76
     1
176
     1
 77
     6
176
     1
 78
     2
176
     1
 67
     7
176
     1
 79
     5
176
     1
170
     0
176
     1
171
     0
176
     1
290
     0
176
     1
 93
        1
176
     1
 44
0.0
176
     1
173
     0
176
     1
1001
ACAD
1000
AcDbSavedByObjectVersion
1070
     0
  0
VISUALSTYLE
  5
25175
102
{ACAD_XDICTIONARY
360
2525A
102
}
102
{ACAD_REACTORS
330
2516C
102
}
330
2516C
100
AcDbVisualStyle
  2

 70
     9
177
     2
291
     0
 71
     3
176
     1
 72
     2
176
     1
 73
     0
176
     1
 90
        0
176
     1
 40
0.6
176
     1
 41
30.0
176
     1
 63
     7
421
 16777215
176
     1
 74
     2
176
     1
 91
        2
176
     1
 64
     7
176
     1
 65
   257
176
     1
 75
     1
176
     1
175
     1
176
     1
 42
40.0
176
     1
 92
        8
176
     1
 66
     7
176
     1
 43
1.0
176
     1
 76
     1
176
     1
 77
     6
176
     1
 78
     2
176
     1
 67
     7
176
     1
 79
     3
176
     1
170
     0
176
     1
171
     0
176
     1
290
     0
176
     1
 93
        1
176
     1
 44
0.0
176
     1
173
     0
176
     1
1001
ACAD
1000
AcDbSavedByObjectVersion
1070
     0
  0
VISUALSTYLE
  5
25177
102
{ACAD_XDICTIONARY
360
2525E
102
}
102
{ACAD_REACTORS
330
2516C
102
}
330
2516C
100
AcDbVisualStyle
  2

 70
    11
177
     2
291
     1
 71
     2
176
     1
 72
     2
176
     1
 73
     0
176
     1
 90
        0
176
     1
 40
0.6
176
     1
 41
30.0
176
     1
 63
     7
421
 16777215
176
     1
 74
     1
176
     1
 91
        4
176
     1
 64
     7
176
     1
 65
   257
176
     1
 75
     1
176
     1
175
     1
176
     1
 42
1.0
176
     1
 92
        8
176
     1
 66
     7
176
     1
 43
1.0
176
     1
 76
     1
176
     1
 77
     6
176
     1
 78
     2
176
     1
 67
     7
176
     1
 79
     5
176
     1
170
     0
176
     1
171
     0
176
     1
290
     0
176
     1
 93
        1
176
     1
 44
-50.0
176
     1
173
     0
176
     1
1001
ACAD
1000
AcDbSavedByObjectVersion
1070
     0
  0
VISUALSTYLE
  5
2521D
102
{ACAD_XDICTIONARY
360
2527C
102
}
102
{ACAD_REACTORS
330
2516C
102
}
330
2516C
100
AcDbVisualStyle
  2
EdgeColorOff
 70
    22
177
     2
291
     1
 71
     2
176
     0
 72
     2
176
     0
 73
     0
176
     0
 90
        0
176
     0
 40
0.6
176
     0
 41
30.0
176
     0
 63
     7
421
 16777215
176
     0
 74
     1
176
     0
 91
        4
176
     0
 64
     7
176
     0
 65
   257
176
     0
 75
     1
176
     0
175
     1
176
     0
 42
1.0
176
     0
 92
        8
176
     2
 66
     7
176
     0
 43
1.0
176
     0
 76
     1
176
     0
 77
     6
176
     0
 78
     2
176
     0
 67
     7
176
     0
 79
     5
176
     0
170
     0
176
     0
171
     0
176
     0
290
     0
176
     0
 93
        1
176
     0
 44
0.0
176
     0
173
     0
176
     0
1001
ACAD
1000
AcDbSavedByObjectVersion
1070
     0
  0
VISUALSTYLE
  5
2517B
102
{ACAD_XDICTIONARY
360
25266
102
}
102
{ACAD_REACTORS
330
2516C
102
}
330
2516C
100
AcDbVisualStyle
  2

 70
    15
177
     2
291
     1
 71
     2
176
     1
 72
     2
176
     1
 73
     0
176
     1
 90
        0
176
     1
 40
0.6
176
     1
 41
30.0
176
     1
 63
     7
421
 16777215
176
     1
 74
     1
176
     1
 91
        4
176
     1
 64
     7
176
     1
 65
   257
176
     1
 75
     1
176
     1
175
     1
176
     1
 42
1.0
176
     1
 92
        8
176
     1
 66
     7
176
     1
 43
1.0
176
     1
 76
     1
176
     1
 77
     6
176
     1
 78
     2
176
     1
 67
     7
176
     1
 79
     5
176
     1
170
     0
176
     1
171
     0
176
     1
290
     0
176
     1
 93
        1
176
     1
 44
0.0
176
     1
173
     0
176
     1
1001
ACAD
1000
AcDbSavedByObjectVersion
1070
     0
  0
VISUALSTYLE
  5
2516D
102
{ACAD_XDICTIONARY
360
2524A
102
}
102
{ACAD_REACTORS
330
2516C
102
}
330
2516C
100
AcDbVisualStyle
  2

 70
     0
177
     2
291
     1
 71
     2
176
     1
 72
     1
176
     1
 73
     1
176
     1
 90
        2
176
     1
 40
0.6
176
     1
 41
30.0
176
     1
 63
     7
421
 16777215
176
     1
 74
     0
176
     1
 91
        4
176
     1
 64
     7
176
     1
 65
   257
176
     1
 75
     1
176
     1
175
     1
176
     1
 42
1.0
176
     1
 92
        8
176
     1
 66
     7
176
     1
 43
1.0
176
     1
 76
     1
176
     1
 77
     6
176
     1
 78
     2
176
     1
 67
     7
176
     1
 79
     5
176
     1
170
     0
176
     1
171
     0
176
     1
290
     0
176
     1
 93
       13
176
     1
 44
0.0
176
     1
173
     0
176
     1
1001
ACAD
1000
AcDbSavedByObjectVersion
1070
     0
  0
VISUALSTYLE
  5
2516E
102
{ACAD_XDICTIONARY
360
2524C
102
}
102
{ACAD_REACTORS
330
2516C
102
}
330
2516C
100
AcDbVisualStyle
  2

 70
     1
177
     2
291
     1
 71
     2
176
     1
 72
     1
176
     1
 73
     1
176
     1
 90
        2
176
     1
 40
0.6
176
     1
 41
30.0
176
     1
 63
     7
421
 16777215
176
     1
 74
     1
176
     1
 91
        4
176
     1
 64
     7
176
     1
 65
   257
176
     1
 75
     1
176
     1
175
     1
176
     1
 42
1.0
176
     1
 92
        0
176
     1
 66
   257
176
     1
 43
1.0
176
     1
 76
     1
176
     1
 77
     6
176
     1
 78
     2
176
     1
 67
     7
176
     1
 79
     5
176
     1
170
     0
176
     1
171
     0
176
     1
290
     0
176
     1
 93
       13
176
     1
 44
0.0
176
     1
173
     0
176
     1
1001
ACAD
1000
AcDbSavedByObjectVersion
1070
     0
  0
VISUALSTYLE
  5
2516F
102
{ACAD_XDICTIONARY
360
2524E
102
}
102
{ACAD_REACTORS
330
2516C
102
}
330
2516C
100
AcDbVisualStyle
  2

 70
     2
177
     2
291
     1
 71
     2
176
     1
 72
     2
176
     1
 73
     1
176
     1
 90
        2
176
     1
 40
0.6
176
     1
 41
30.0
176
     1
 63
     7
421
 16777215
176
     1
 74
     0
176
     1
 91
        4
176
     1
 64
     7
176
     1
 65
   257
176
     1
 75
     1
176
     1
175
     1
176
     1
 42
1.0
176
     1
 92
        0
176
     1
 66
     7
176
     1
 43
1.0
176
     1
 76
     1
176
     1
 77
     6
176
     1
 78
     2
176
     1
 67
     7
176
     1
 79
     5
176
     1
170
     0
176
     1
171
     0
176
     1
290
     0
176
     1
 93
       13
176
     1
 44
0.0
176
     1
173
     0
176
     1
1001
ACAD
1000
AcDbSavedByObjectVersion
1070
     0
  0
VISUALSTYLE
  5
25170
102
{ACAD_XDICTIONARY
360
25250
102
}
102
{ACAD_REACTORS
330
2516C
102
}
330
2516C
100
AcDbVisualStyle
  2

 70
     3
177
     2
291
     1
 71
     2
176
     1
 72
     2
176
     1
 73
     1
176
     1
 90
        2
176
     1
 40
0.6
176
     1
 41
30.0
176
     1
 63
     7
421
 16777215
176
     1
 74
     1
176
     1
 91
        4
176
     1
 64
     7
176
     1
 65
   257
176
     1
 75
     1
176
     1
175
     1
176
     1
 42
1.0
176
     1
 92
        0
176
     1
 66
   257
176
     1
 43
1.0
176
     1
 76
     1
176
     1
 77
     6
176
     1
 78
     2
176
     1
 67
     7
176
     1
 79
     5
176
     1
170
     0
176
     1
171
     0
176
     1
290
     0
176
     1
 93
       13
176
     1
 44
0.0
176
     1
173
     0
176
     1
1001
ACAD
1000
AcDbSavedByObjectVersion
1070
     0
  0
VISUALSTYLE
  5
25215
102
{ACAD_XDICTIONARY
360
2526C
102
}
102
{ACAD_REACTORS
330
2516C
102
}
330
2516C
100
AcDbVisualStyle
  2
Hidden
 70
     6
177
     2
291
     0
 71
     1
176
     1
 72
     2
176
     1
 73
     2
176
     1
 90
        0
176
     1
 40
0.6
176
     1
 41
30.0
176
     1
 63
     7
421
 16777215
176
     1
 74
     2
176
     1
 91
        2
176
     1
 64
     7
176
     1
 65
   257
176
     1
 75
     2
176
     1
175
     1
176
     1
 42
40.0
176
     1
 92
        0
176
     1
 66
   257
176
     1
 43
1.0
176
     1
 76
     1
176
     1
 77
     6
176
     1
 78
     2
176
     1
 67
     7
176
     1
 79
     3
176
     1
170
     0
176
     1
171
     0
176
     1
290
     0
176
     1
 93
        1
176
     1
 44
0.0
176
     1
173
     0
176
     1
1001
ACAD
1000
AcDbSavedByObjectVersion
1070
     0
  0
VISUALSTYLE
  5
2521B
102
{ACAD_XDICTIONARY
360
25278
102
}
102
{ACAD_REACTORS
330
2516C
102
}
330
2516C
100
AcDbVisualStyle
  2
JitterOff
 70
    20
177
     2
291
     1
 71
     2
176
     0
 72
     2
176
     0
 73
     0
176
     0
 90
        0
176
     0
 40
0.6
176
     0
 41
30.0
176
     0
 63
     7
421
 16777215
176
     0
 74
     1
176
     0
 91
        4
176
     0
 64
     7
176
     0
 65
   257
176
     0
 75
     1
176
     0
175
     1
176
     0
 42
1.0
176
     0
 92
       10
176
     2
 66
     7
176
     0
 43
1.0
176
     0
 76
     1
176
     0
 77
     6
176
     0
 78
     2
176
     0
 67
     7
176
     0
 79
     5
176
     0
170
     0
176
     0
171
     0
176
     0
290
     0
176
     0
 93
        1
176
     0
 44
0.0
176
     0
173
     0
176
     0
1001
ACAD
1000
AcDbSavedByObjectVersion
1070
     0
  0
VISUALSTYLE
  5
2517A
102
{ACAD_XDICTIONARY
360
25264
102
}
102
{ACAD_REACTORS
330
2516C
102
}
330
2516C
100
AcDbVisualStyle
  2

 70
    14
177
     2
291
     1
 71
     2
176
     1
 72
     2
176
     1
 73
     0
176
     1
 90
        0
176
     1
 40
0.6
176
     1
 41
30.0
176
     1
 63
     7
421
 16777215
176
     1
 74
     1
176
     1
 91
        4
176
     1
 64
     7
176
     1
 65
   257
176
     1
 75
     7
176
     1
175
     7
176
     1
 42
1.0
176
     1
 92
        8
176
     1
 66
     7
176
     1
 43
1.0
176
     1
 76
     1
176
     1
 77
     6
176
     1
 78
     2
176
     1
 67
     7
176
     1
 79
     5
176
     1
170
     0
176
     1
171
     0
176
     1
290
     0
176
     1
 93
        1
176
     1
 44
0.0
176
     1
173
     0
176
     1
1001
ACAD
1000
AcDbSavedByObjectVersion
1070
     0
  0
VISUALSTYLE
  5
2521C
102
{ACAD_XDICTIONARY
360
2527A
102
}
102
{ACAD_REACTORS
330
2516C
102
}
330
2516C
100
AcDbVisualStyle
  2
OverhangOff
 70
    21
177
     2
291
     1
 71
     2
176
     0
 72
     2
176
     0
 73
     0
176
     0
 90
        0
176
     0
 40
0.6
176
     0
 41
30.0
176
     0
 63
     7
421
 16777215
176
     0
 74
     1
176
     0
 91
        4
176
     0
 64
     7
176
     0
 65
   257
176
     0
 75
     1
176
     0
175
     1
176
     0
 42
1.0
176
     0
 92
        9
176
     2
 66
     7
176
     0
 43
1.0
176
     0
 76
     1
176
     0
 77
     6
176
     0
 78
     2
176
     0
 67
     7
176
     0
 79
     5
176
     0
170
     0
176
     0
171
     0
176
     0
290
     0
176
     0
 93
        1
176
     0
 44
0.0
176
     0
173
     0
176
     0
1001
ACAD
1000
AcDbSavedByObjectVersion
1070
     0
  0
VISUALSTYLE
  5
25176
102
{ACAD_XDICTIONARY
360
2525C
102
}
102
{ACAD_REACTORS
330
2516C
102
}
330
2516C
100
AcDbVisualStyle
  2

 70
     8
177
     2
291
     0
 71
     2
176
     1
 72
     2
176
     1
 73
     0
176
     1
 90
        0
176
     1
 40
0.6
176
     1
 41
30.0
176
     1
 63
     7
421
 16777215
176
     1
 74
     1
176
     1
 91
        0
176
     1
 64
     7
176
     1
 65
   257
176
     1
 75
     1
176
     1
175
     1
176
     1
 42
1.0
176
     1
 92
        8
176
     1
 66
     8
424
  7895160
176
     1
 43
1.0
176
     1
 76
     1
176
     1
 77
     6
176
     1
 78
     2
176
     1
 67
     7
176
     1
 79
     5
176
     1
170
     0
176
     1
171
     0
176
     1
290
     0
176
     1
 93
       13
176
     1
 44
0.0
176
     1
173
     0
176
     1
1001
ACAD
1000
AcDbSavedByObjectVersion
1070
     0
  0
VISUALSTYLE
  5
2521A
102
{ACAD_XDICTIONARY
360
25276
102
}
102
{ACAD_REACTORS
330
2516C
102
}
330
2516C
100
AcDbVisualStyle
  2
Shaded
 70
    27
177
     2
291
     0
 71
     2
176
     1
 72
     2
176
     1
 73
     1
176
     1
 90
        2
176
     1
 40
0.6
176
     1
 41
30.0
176
     1
 63
     7
421
 16777215
176
     1
 74
     0
176
     1
 91
        4
176
     1
 64
     7
176
     1
 65
   257
176
     1
 75
     1
176
     1
175
     1
176
     1
 42
1.0
176
     1
 92
        8
176
     1
 66
   257
176
     1
 43
1.0
176
     1
 76
     1
176
     1
 77
     6
176
     1
 78
     2
176
     1
 67
     8
425
  7895160
176
     1
 79
     3
176
     1
170
     0
176
     1
171
     0
176
     1
290
     0
176
     1
 93
        5
176
     1
 44
0.0
176
     1
173
     0
176
     1
1001
ACAD
1000
AcDbSavedByObjectVersion
1070
     0
  0
VISUALSTYLE
  5
25219
102
{ACAD_XDICTIONARY
360
25274
102
}
102
{ACAD_REACTORS
330
2516C
102
}
330
2516C
100
AcDbVisualStyle
  2
Shaded with edges
 70
    26
177
     2
291
     0
 71
     2
176
     1
 72
     2
176
     1
 73
     1
176
     1
 90
        2
176
     1
 40
0.6
176
     1
 41
30.0
176
     1
 63
     7
421
 16777215
176
     1
 74
     1
176
     1
 91
       10
176
     1
 64
     7
176
     1
 65
   257
176
     1
 75
     2
176
     1
175
     1
176
     1
 42
1.0
176
     1
 92
        8
176
     1
 66
   257
176
     1
 43
1.0
176
     1
 76
     1
176
     1
 77
     6
176
     1
 78
     2
176
     1
 67
     7
176
     1
 79
     3
176
     1
170
     0
176
     1
171
     0
176
     1
290
     0
176
     1
 93
        5
176
     1
 44
0.0
176
     1
173
     0
176
     1
1001
ACAD
1000
AcDbSavedByObjectVersion
1070
     0
  0
VISUALSTYLE
  5
25216
102
{ACAD_XDICTIONARY
360
2526E
102
}
102
{ACAD_REACTORS
330
2516C
102
}
330
2516C
100
AcDbVisualStyle
  2
Shades of Gray
 70
    23
177
     2
291
     0
 71
     2
176
     1
 72
     2
176
     1
 73
     3
176
     1
 90
        0
176
     1
 40
0.6
176
     1
 41
30.0
176
     1
 63
     7
421
 16777215
176
     1
 74
     2
176
     1
 91
        2
176
     1
 64
     7
176
     1
 65
     7
176
     1
 75
     1
176
     1
175
     1
176
     1
 42
40.0
176
     1
 92
        8
176
     1
 66
     7
176
     1
 43
1.0
176
     1
 76
     1
176
     1
 77
     6
176
     1
 78
     2
176
     1
 67
     7
176
     1
 79
     3
176
     1
170
     0
176
     1
171
     0
176
     1
290
     0
176
     1
 93
        1
176
     1
 44
0.0
176
     1
173
     0
176
     1
1001
ACAD
1000
AcDbSavedByObjectVersion
1070
     0
  0
VISUALSTYLE
  5
25217
102
{ACAD_XDICTIONARY
360
25270
102
}
102
{ACAD_REACTORS
330
2516C
102
}
330
2516C
100
AcDbVisualStyle
  2
Sketchy
 70
    24
177
     2
291
     0
 71
     1
176
     1
 72
     2
176
     1
 73
     2
176
     1
 90
        0
176
     1
 40
0.6
176
     1
 41
30.0
176
     1
 63
     7
421
 16777215
176
     1
 74
     2
176
     1
 91
        2
176
     1
 64
     7
176
     1
 65
     7
176
     1
 75
     1
176
     1
175
     1
176
     1
 42
40.0
176
     1
 92
       11
176
     1
 66
     7
176
     1
 43
1.0
176
     1
 76
     1
176
     1
 77
     6
176
     1
 78
     2
176
     1
 67
     7
176
     1
 79
     6
176
     1
170
     0
176
     1
171
     0
176
     1
290
     0
176
     1
 93
        1
176
     1
 44
0.0
176
     1
173
     0
176
     1
1001
ACAD
1000
AcDbSavedByObjectVersion
1070
     0
  0
VISUALSTYLE
  5
25179
102
{ACAD_XDICTIONARY
360
25262
102
}
102
{ACAD_REACTORS
330
2516C
102
}
330
2516C
100
AcDbVisualStyle
  2

 70
    13
177
     2
291
     1
 71
     2
176
     1
 72
     2
176
     1
 73
     0
176
     1
 90
        0
176
     1
 40
0.6
176
     1
 41
30.0
176
     1
 63
     7
421
 16777215
176
     1
 74
     1
176
     1
 91
        4
176
     1
 64
     7
176
     1
 65
   257
176
     1
 75
     1
176
     1
175
     1
176
     1
 42
1.0
176
     1
 92
       12
176
     1
 66
     7
176
     1
 43
1.0
176
     1
 76
     1
176
     1
 77
     6
176
     1
 78
     2
176
     1
 67
     7
176
     1
 79
     5
176
     1
170
     0
176
     1
171
     0
176
     1
290
     0
176
     1
 93
        1
176
     1
 44
0.0
176
     1
173
     0
176
     1
1001
ACAD
1000
AcDbSavedByObjectVersion
1070
     0
  0
VISUALSTYLE
  5
25214
102
{ACAD_XDICTIONARY
360
2526A
102
}
102
{ACAD_REACTORS
330
2516C
102
}
330
2516C
100
AcDbVisualStyle
  2
Wireframe
 70
     5
177
     2
291
     0
 71
     0
176
     1
 72
     2
176
     1
 73
     0
176
     1
 90
        0
176
     1
 40
0.6
176
     1
 41
30.0
176
     1
 63
     7
421
 16777215
176
     1
 74
     1
176
     1
 91
        4
176
     1
 64
     7
176
     1
 65
   257
176
     1
 75
     1
176
     1
175
     1
176
     1
 42
1.0
176
     1
 92
        0
176
     1
 66
   257
176
     1
 43
1.0
176
     1
 76
     1
176
     1
 77
     6
176
     1
 78
     2
176
     1
 67
     7
176
     1
 79
     3
176
     1
170
     0
176
     1
171
     0
176
     1
290
     0
176
     1
 93
        1
176
     1
 44
0.0
176
     1
173
     0
176
     1
1001
ACAD
1000
AcDbSavedByObjectVersion
1070
     0
  0
VISUALSTYLE
  5
25218
102
{ACAD_XDICTIONARY
360
25272
102
}
102
{ACAD_REACTORS
330
2516C
102
}
330
2516C
100
AcDbVisualStyle
  2
X-Ray
 70
    25
177
     2
291
     0
 71
     2
176
     1
 72
     2
176
     1
 73
     1
176
     1
 90
        1
176
     1
 40
0.5
176
     1
 41
30.0
176
     1
 63
     7
421
 16777215
176
     1
 74
     1
176
     1
 91
        0
176
     1
 64
     7
176
     1
 65
   257
176
     1
 75
     1
176
     1
175
     1
176
     1
 42
1.0
176
     1
 92
        8
176
     1
 66
     7
176
     1
 43
1.0
176
     1
 76
     1
176
     1
 77
     6
176
     1
 78
     2
176
     1
 67
     7
176
     1
 79
     3
176
     1
170
     0
176
     1
171
     0
176
     1
290
     0
176
     1
 93
       13
176
     1
 44
0.0
176
     1
173
     0
176
     1
1001
ACAD
1000
AcDbSavedByObjectVersion
1070
     0
  0
DICTIONARYVAR
  5
2523E
102
{ACAD_REACTORS
330
5E
102
}
330
5E
100
DictionaryVariables
280
     0
  1
1:1
  0
DICTIONARYVAR
  5
2523A
102
{ACAD_REACTORS
330
5E
102
}
330
5E
100
DictionaryVariables
280
     0
  1
STANDARD
  0
DICTIONARYVAR
  5
25210
102
{ACAD_REACTORS
330
5E
102
}
330
5E
100
DictionaryVariables
280
     0
  1
STANDARD
  0
DICTIONARYVAR
  5
2523B
102
{ACAD_REACTORS
330
5E
102
}
330
5E
100
DictionaryVariables
280
     0
  1
Metric50
  0
DICTIONARYVAR
  5
2523C
102
{ACAD_REACTORS
330
5E
102
}
330
5E
100
DictionaryVariables
280
     0
  1
Metric50
  0
DICTIONARYVAR
  5
5F
102
{ACAD_REACTORS
330
5E
102
}
330
5E
100
DictionaryVariables
280
     0
  1
2
  0
DICTIONARYVAR
  5
63
102
{ACAD_REACTORS
330
5E
102
}
330
5E
100
DictionaryVariables
280
     0
  1
1
  0
DICTIONARYVAR
  5
25240
102
{ACAD_REACTORS
330
5E
102
}
330
5E
100
DictionaryVariables
280
     0
  1
1
  0
DICTIONARYVAR
  5
25241
102
{ACAD_REACTORS
330
5E
102
}
330
5E
100
DictionaryVariables
280
     0
  1
15
  0
DICTIONARYVAR
  5
2523F
102
{ACAD_REACTORS
330
5E
102
}
330
5E
100
DictionaryVariables
280
     0
  1
0
  0
DICTIONARYVAR
  5
2523D
102
{ACAD_REACTORS
330
5E
102
}
330
5E
100
DictionaryVariables
280
     0
  1
0
  0
DICTIONARYVAR
  5
1CF
102
{ACAD_REACTORS
330
5E
102
}
330
5E
100
DictionaryVariables
280
     0
  1

  0
XRECORD
  5
236C9
102
{ACAD_REACTORS
330
236C8
102
}
330
236C8
100
AcDbXrecord
280
     1
330
0
330
0
330
0
330
0
330
0
330
0
330
0
330
0
330
0
330
0
330
0
330
0
330
0
330
0
330
0
330
0
330
0
330
0
330
0
330
0
330
2357C
330
23591
  0
ACAD_PROXY_OBJECT
  5
24D89
102
{ACAD_REACTORS
330
24D88
102
}
330
24D88
100
AcDbProxyObject
 90
      499
 91
      505
 95
    65563
 70
     1
100
vlo_VL
 90
   -64512
 91
       12
 92
        1
 40
2.5
300
(&VLO-R . 0)
  0
DICTIONARY
  5
25244
330
2517E
100
AcDbDictionary
280
     1
281
     1
  3
ACAD_ROUNDTRIP_2008_TABLESTYLE_CELLSTYLEMAP
360
25245
  0
DICTIONARY
  5
25254
330
25172
100
AcDbDictionary
280
     1
281
     1
  3
ACAD_XREC_ROUNDTRIP
360
25255
  0
DICTIONARY
  5
25258
330
25174
100
AcDbDictionary
280
     1
281
     1
  3
ACAD_XREC_ROUNDTRIP
360
25259
  0
DICTIONARY
  5
25256
330
25173
100
AcDbDictionary
280
     1
281
     1
  3
ACAD_XREC_ROUNDTRIP
360
25257
  0
DICTIONARY
  5
25252
330
25171
100
AcDbDictionary
280
     1
281
     1
  3
ACAD_XREC_ROUNDTRIP
360
25253
  0
DICTIONARY
  5
25260
330
25178
100
AcDbDictionary
280
     1
281
     1
  3
ACAD_XREC_ROUNDTRIP
360
25261
  0
DICTIONARY
  5
25268
330
2517C
100
AcDbDictionary
280
     1
281
     1
  3
ACAD_XREC_ROUNDTRIP
360
25269
  0
DICTIONARY
  5
2525A
330
25175
100
AcDbDictionary
280
     1
281
     1
  3
ACAD_XREC_ROUNDTRIP
360
2525B
  0
DICTIONARY
  5
2525E
330
25177
100
AcDbDictionary
280
     1
281
     1
  3
ACAD_XREC_ROUNDTRIP
360
2525F
  0
DICTIONARY
  5
2527C
330
2521D
100
AcDbDictionary
280
     1
281
     1
  3
ACAD_XREC_ROUNDTRIP
360
2527D
  0
DICTIONARY
  5
25266
330
2517B
100
AcDbDictionary
280
     1
281
     1
  3
ACAD_XREC_ROUNDTRIP
360
25267
  0
DICTIONARY
  5
2524A
330
2516D
100
AcDbDictionary
280
     1
281
     1
  3
ACAD_XREC_ROUNDTRIP
360
2524B
  0
DICTIONARY
  5
2524C
330
2516E
100
AcDbDictionary
280
     1
281
     1
  3
ACAD_XREC_ROUNDTRIP
360
2524D
  0
DICTIONARY
  5
2524E
330
2516F
100
AcDbDictionary
280
     1
281
     1
  3
ACAD_XREC_ROUNDTRIP
360
2524F
  0
DICTIONARY
  5
25250
330
25170
100
AcDbDictionary
280
     1
281
     1
  3
ACAD_XREC_ROUNDTRIP
360
25251
  0
DICTIONARY
  5
2526C
330
25215
100
AcDbDictionary
280
     1
281
     1
  3
ACAD_XREC_ROUNDTRIP
360
2526D
  0
DICTIONARY
  5
25278
330
2521B
100
AcDbDictionary
280
     1
281
     1
  3
ACAD_XREC_ROUNDTRIP
360
25279
  0
DICTIONARY
  5
25264
330
2517A
100
AcDbDictionary
280
     1
281
     1
  3
ACAD_XREC_ROUNDTRIP
360
25265
  0
DICTIONARY
  5
2527A
330
2521C
100
AcDbDictionary
280
     1
281
     1
  3
ACAD_XREC_ROUNDTRIP
360
2527B
  0
DICTIONARY
  5
2525C
330
25176
100
AcDbDictionary
280
     1
281
     1
  3
ACAD_XREC_ROUNDTRIP
360
2525D
  0
DICTIONARY
  5
25276
330
2521A
100
AcDbDictionary
280
     1
281
     1
  3
ACAD_XREC_ROUNDTRIP
360
25277
  0
DICTIONARY
  5
25274
330
25219
100
AcDbDictionary
280
     1
281
     1
  3
ACAD_XREC_ROUNDTRIP
360
25275
  0
DICTIONARY
  5
2526E
330
25216
100
AcDbDictionary
280
     1
281
     1
  3
ACAD_XREC_ROUNDTRIP
360
2526F
  0
DICTIONARY
  5
25270
330
25217
100
AcDbDictionary
280
     1
281
     1
  3
ACAD_XREC_ROUNDTRIP
360
25271
  0
DICTIONARY
  5
25262
330
25179
100
AcDbDictionary
280
     1
281
     1
  3
ACAD_XREC_ROUNDTRIP
360
25263
  0
DICTIONARY
  5
2526A
330
25214
100
AcDbDictionary
280
     1
281
     1
  3
ACAD_XREC_ROUNDTRIP
360
2526B
  0
DICTIONARY
  5
25272
330
25218
100
AcDbDictionary
280
     1
281
     1
  3
ACAD_XREC_ROUNDTRIP
360
25273
  0
CELLSTYLEMAP
  5
25245
102
{ACAD_REACTORS
330
25244
102
}
330
25244
100
AcDbCellStyleMap
 90
        3
300
CELLSTYLE
  1
TABLEFORMAT_BEGIN
 90
        5
170
     1
 91
        0
 92
    32768
 62
   257
 93
        1
300
CONTENTFORMAT
  1
CONTENTFORMAT_BEGIN
 90
        0
 91
        0
 92
      512
 93
        0
300

 40
0.0
140
1.0
 94
        5
 62
     0
340
11
144
6.0
309
CONTENTFORMAT_END
171
     1
301
MARGIN
  1
CELLMARGIN_BEGIN
 40
1.5
 40
1.5
 40
1.5
 40
1.5
 40
0.18
 40
0.18
309
CELLMARGIN_END
 94
        6
 95
        1
302
GRIDFORMAT
  1
GRIDFORMAT_BEGIN
 90
        0
 91
        1
 62
     0
 92
       -2
340
0
 93
        0
 40
0.045
309
GRIDFORMAT_END
 95
        2
302
GRIDFORMAT
  1
GRIDFORMAT_BEGIN
 90
        0
 91
        1
 62
     0
 92
       -2
340
0
 93
        0
 40
0.045
309
GRIDFORMAT_END
 95
        4
302
GRIDFORMAT
  1
GRIDFORMAT_BEGIN
 90
        0
 91
        1
 62
     0
 92
       -2
340
0
 93
        0
 40
0.045
309
GRIDFORMAT_END
 95
        8
302
GRIDFORMAT
  1
GRIDFORMAT_BEGIN
 90
        0
 91
        1
 62
     0
 92
       -2
340
0
 93
        0
 40
0.045
309
GRIDFORMAT_END
 95
       16
302
GRIDFORMAT
  1
GRIDFORMAT_BEGIN
 90
        0
 91
        1
 62
     0
 92
       -2
340
0
 93
        0
 40
0.045
309
GRIDFORMAT_END
 95
       32
302
GRIDFORMAT
  1
GRIDFORMAT_BEGIN
 90
        0
 91
        1
 62
     0
 92
       -2
340
0
 93
        0
 40
0.045
309
GRIDFORMAT_END
309
TABLEFORMAT_END
  1
CELLSTYLE_BEGIN
 90
        1
 91
        1
300
_TITLE
309
CELLSTYLE_END
300
CELLSTYLE
  1
TABLEFORMAT_BEGIN
 90
        5
170
     1
 91
        0
 92
        0
 62
   257
 93
        1
300
CONTENTFORMAT
  1
CONTENTFORMAT_BEGIN
 90
        0
 91
        0
 92
      512
 93
        0
300

 40
0.0
140
1.0
 94
        5
 62
     0
340
11
144
4.5
309
CONTENTFORMAT_END
171
     1
301
MARGIN
  1
CELLMARGIN_BEGIN
 40
1.5
 40
1.5
 40
1.5
 40
1.5
 40
0.18
 40
0.18
309
CELLMARGIN_END
 94
        6
 95
        1
302
GRIDFORMAT
  1
GRIDFORMAT_BEGIN
 90
        0
 91
        1
 62
     0
 92
       -2
340
0
 93
        0
 40
0.045
309
GRIDFORMAT_END
 95
        2
302
GRIDFORMAT
  1
GRIDFORMAT_BEGIN
 90
        0
 91
        1
 62
     0
 92
       -2
340
0
 93
        0
 40
0.045
309
GRIDFORMAT_END
 95
        4
302
GRIDFORMAT
  1
GRIDFORMAT_BEGIN
 90
        0
 91
        1
 62
     0
 92
       -2
340
0
 93
        0
 40
0.045
309
GRIDFORMAT_END
 95
        8
302
GRIDFORMAT
  1
GRIDFORMAT_BEGIN
 90
        0
 91
        1
 62
     0
 92
       -2
340
0
 93
        0
 40
0.045
309
GRIDFORMAT_END
 95
       16
302
GRIDFORMAT
  1
GRIDFORMAT_BEGIN
 90
        0
 91
        1
 62
     0
 92
       -2
340
0
 93
        0
 40
0.045
309
GRIDFORMAT_END
 95
       32
302
GRIDFORMAT
  1
GRIDFORMAT_BEGIN
 90
        0
 91
        1
 62
     0
 92
       -2
340
0
 93
        0
 40
0.045
309
GRIDFORMAT_END
309
TABLEFORMAT_END
  1
CELLSTYLE_BEGIN
 90
        2
 91
        1
300
_HEADER
309
CELLSTYLE_END
300
CELLSTYLE
  1
TABLEFORMAT_BEGIN
 90
        5
170
     1
 91
        0
 92
        0
 62
   257
 93
        1
300
CONTENTFORMAT
  1
CONTENTFORMAT_BEGIN
 90
        0
 91
        0
 92
      512
 93
        0
300

 40
0.0
140
1.0
 94
        2
 62
     0
340
11
144
4.5
309
CONTENTFORMAT_END
171
     1
301
MARGIN
  1
CELLMARGIN_BEGIN
 40
1.5
 40
1.5
 40
1.5
 40
1.5
 40
0.18
 40
0.18
309
CELLMARGIN_END
 94
        6
 95
        1
302
GRIDFORMAT
  1
GRIDFORMAT_BEGIN
 90
        0
 91
        1
 62
     0
 92
       -2
340
0
 93
        0
 40
0.045
309
GRIDFORMAT_END
 95
        2
302
GRIDFORMAT
  1
GRIDFORMAT_BEGIN
 90
        0
 91
        1
 62
     0
 92
       -2
340
0
 93
        0
 40
0.045
309
GRIDFORMAT_END
 95
        4
302
GRIDFORMAT
  1
GRIDFORMAT_BEGIN
 90
        0
 91
        1
 62
     0
 92
       -2
340
0
 93
        0
 40
0.045
309
GRIDFORMAT_END
 95
        8
302
GRIDFORMAT
  1
GRIDFORMAT_BEGIN
 90
        0
 91
        1
 62
     0
 92
       -2
340
0
 93
        0
 40
0.045
309
GRIDFORMAT_END
 95
       16
302
GRIDFORMAT
  1
GRIDFORMAT_BEGIN
 90
        0
 91
        1
 62
     0
 92
       -2
340
0
 93
        0
 40
0.045
309
GRIDFORMAT_END
 95
       32
302
GRIDFORMAT
  1
GRIDFORMAT_BEGIN
 90
        0
 91
        1
 62
     0
 92
       -2
340
0
 93
        0
 40
0.045
309
GRIDFORMAT_END
309
TABLEFORMAT_END
  1
CELLSTYLE_BEGIN
 90
        3
 91
        2
300
_DATA
309
CELLSTYLE_END
  0
XRECORD
  5
25255
102
{ACAD_REACTORS
330
25254
102
}
330
25254
100
AcDbXrecord
280
     1
102
RTVSPost2010Prop28
280
     1
102
RTVSPost2010PropOp28
 70
     1
102
RTVSPost2010Prop29
280
     1
102
RTVSPost2010PropOp29
 70
     1
102
RTVSPost2010Prop30
280
     0
102
RTVSPost2010PropOp30
 70
     1
102
RTVSPost2010Prop31
280
     0
102
RTVSPost2010PropOp31
 70
     1
102
RTVSPost2010Prop32
280
     0
102
RTVSPost2010PropOp32
 70
     1
102
RTVSPost2010Prop33
280
     0
102
RTVSPost2010PropOp33
 70
     1
102
RTVSPost2010Prop34
280
     0
102
RTVSPost2010PropOp34
 70
     1
102
RTVSPost2010Prop35
280
     0
102
RTVSPost2010PropOp35
 70
     1
102
RTVSPost2010Prop36
280
     0
102
RTVSPost2010PropOp36
 70
     1
102
RTVSPost2010Prop37
 90
       50
102
RTVSPost2010PropOp37
 70
     1
102
RTVSPost2010Prop38
140
0.0
102
RTVSPost2010PropOp38
 70
     1
102
RTVSPost2010Prop39
140
1.0
102
RTVSPost2010PropOp39
 70
     1
102
RTVSPost2010Prop40
 90
        0
102
RTVSPost2010PropOp40
 70
     1
102
RTVSPost2010Prop41ColorIndex
 90
       18
102
RTVSPost2010Prop41ColorRGB
 90
        0
102
RTVSPost2010PropOp41
 70
     1
102
RTVSPost2010Prop42
 90
       50
102
RTVSPost2010PropOp42
 70
     1
102
RTVSPost2010Prop43
 90
        3
102
RTVSPost2010PropOp43
 70
     1
102
RTVSPost2010Prop44ColorIndex
 90
        5
102
RTVSPost2010Prop44ColorRGB
 90
      255
102
RTVSPost2010PropOp44
 70
     1
102
RTVSPost2010Prop45
280
     0
102
RTVSPost2010PropOp45
 70
     1
102
RTVSPost2010Prop46
 90
       50
102
RTVSPost2010PropOp46
 70
     1
102
RTVSPost2010Prop47
 90
       50
102
RTVSPost2010PropOp47
 70
     1
102
RTVSPost2010Prop48
 90
       50
102
RTVSPost2010PropOp48
 70
     1
102
RTVSPost2010Prop49
280
     0
102
RTVSPost2010PropOp49
 70
     1
102
RTVSPost2010Prop50
 90
       50
102
RTVSPost2010PropOp50
 70
     1
102
RTVSPost2010Prop51ColorIndex
 90
      256
102
RTVSPost2010Prop51ColorRGB
 90
-16777216
102
RTVSPost2010PropOp51
 70
     0
102
RTVSPost2010Prop52
140
1.0
102
RTVSPost2010PropOp52
 70
     0
102
RTVSPost2010Prop53
 90
        2
102
RTVSPost2010PropOp53
 70
     1
102
RTVSPost2010Prop54
  1
strokes_ogs.tif
102
RTVSPost2010PropOp54
 70
     1
102
RTVSPost2010Prop55
280
     0
102
RTVSPost2010PropOp55
 70
     1
102
RTVSPost2010Prop56
140
1.0
102
RTVSPost2010PropOp56
 70
     1
102
RTVSPost2010Prop57
140
1.0
102
RTVSPost2010PropOp57
 70
     1
  0
XRECORD
  5
25259
102
{ACAD_REACTORS
330
25258
102
}
330
25258
100
AcDbXrecord
280
     1
102
RTVSPost2010Prop28
280
     0
102
RTVSPost2010PropOp28
 70
     1
102
RTVSPost2010Prop29
280
     1
102
RTVSPost2010PropOp29
 70
     1
102
RTVSPost2010Prop30
280
     1
102
RTVSPost2010PropOp30
 70
     1
102
RTVSPost2010Prop31
280
     0
102
RTVSPost2010PropOp31
 70
     1
102
RTVSPost2010Prop32
280
     0
102
RTVSPost2010PropOp32
 70
     1
102
RTVSPost2010Prop33
280
     0
102
RTVSPost2010PropOp33
 70
     1
102
RTVSPost2010Prop34
280
     0
102
RTVSPost2010PropOp34
 70
     1
102
RTVSPost2010Prop35
280
     0
102
RTVSPost2010PropOp35
 70
     1
102
RTVSPost2010Prop36
280
     0
102
RTVSPost2010PropOp36
 70
     1
102
RTVSPost2010Prop37
 90
       50
102
RTVSPost2010PropOp37
 70
     1
102
RTVSPost2010Prop38
140
0.0
102
RTVSPost2010PropOp38
 70
     1
102
RTVSPost2010Prop39
140
1.0
102
RTVSPost2010PropOp39
 70
     1
102
RTVSPost2010Prop40
 90
        0
102
RTVSPost2010PropOp40
 70
     1
102
RTVSPost2010Prop41ColorIndex
 90
       18
102
RTVSPost2010Prop41ColorRGB
 90
        0
102
RTVSPost2010PropOp41
 70
     1
102
RTVSPost2010Prop42
 90
       50
102
RTVSPost2010PropOp42
 70
     1
102
RTVSPost2010Prop43
 90
        3
102
RTVSPost2010PropOp43
 70
     1
102
RTVSPost2010Prop44ColorIndex
 90
        5
102
RTVSPost2010Prop44ColorRGB
 90
      255
102
RTVSPost2010PropOp44
 70
     1
102
RTVSPost2010Prop45
280
     0
102
RTVSPost2010PropOp45
 70
     1
102
RTVSPost2010Prop46
 90
       50
102
RTVSPost2010PropOp46
 70
     1
102
RTVSPost2010Prop47
 90
       50
102
RTVSPost2010PropOp47
 70
     1
102
RTVSPost2010Prop48
 90
       50
102
RTVSPost2010PropOp48
 70
     1
102
RTVSPost2010Prop49
280
     0
102
RTVSPost2010PropOp49
 70
     1
102
RTVSPost2010Prop50
 90
       50
102
RTVSPost2010PropOp50
 70
     1
102
RTVSPost2010Prop51ColorIndex
 90
      256
102
RTVSPost2010Prop51ColorRGB
 90
-16777216
102
RTVSPost2010PropOp51
 70
     0
102
RTVSPost2010Prop52
140
1.0
102
RTVSPost2010PropOp52
 70
     0
102
RTVSPost2010Prop53
 90
        2
102
RTVSPost2010PropOp53
 70
     1
102
RTVSPost2010Prop54
  1
strokes_ogs.tif
102
RTVSPost2010PropOp54
 70
     1
102
RTVSPost2010Prop55
280
     0
102
RTVSPost2010PropOp55
 70
     1
102
RTVSPost2010Prop56
140
1.0
102
RTVSPost2010PropOp56
 70
     1
102
RTVSPost2010Prop57
140
1.0
102
RTVSPost2010PropOp57
 70
     1
  0
XRECORD
  5
25257
102
{ACAD_REACTORS
330
25256
102
}
330
25256
100
AcDbXrecord
280
     1
102
RTVSPost2010Prop28
280
     0
102
RTVSPost2010PropOp28
 70
     1
102
RTVSPost2010Prop29
280
     1
102
RTVSPost2010PropOp29
 70
     1
102
RTVSPost2010Prop30
280
     1
102
RTVSPost2010PropOp30
 70
     1
102
RTVSPost2010Prop31
280
     0
102
RTVSPost2010PropOp31
 70
     1
102
RTVSPost2010Prop32
280
     0
102
RTVSPost2010PropOp32
 70
     1
102
RTVSPost2010Prop33
280
     0
102
RTVSPost2010PropOp33
 70
     1
102
RTVSPost2010Prop34
280
     0
102
RTVSPost2010PropOp34
 70
     1
102
RTVSPost2010Prop35
280
     0
102
RTVSPost2010PropOp35
 70
     1
102
RTVSPost2010Prop36
280
     0
102
RTVSPost2010PropOp36
 70
     1
102
RTVSPost2010Prop37
 90
       50
102
RTVSPost2010PropOp37
 70
     1
102
RTVSPost2010Prop38
140
0.0
102
RTVSPost2010PropOp38
 70
     1
102
RTVSPost2010Prop39
140
1.0
102
RTVSPost2010PropOp39
 70
     1
102
RTVSPost2010Prop40
 90
        0
102
RTVSPost2010PropOp40
 70
     1
102
RTVSPost2010Prop41ColorIndex
 90
       18
102
RTVSPost2010Prop41ColorRGB
 90
        0
102
RTVSPost2010PropOp41
 70
     1
102
RTVSPost2010Prop42
 90
       50
102
RTVSPost2010PropOp42
 70
     1
102
RTVSPost2010Prop43
 90
        3
102
RTVSPost2010PropOp43
 70
     1
102
RTVSPost2010Prop44ColorIndex
 90
        5
102
RTVSPost2010Prop44ColorRGB
 90
      255
102
RTVSPost2010PropOp44
 70
     1
102
RTVSPost2010Prop45
280
     0
102
RTVSPost2010PropOp45
 70
     1
102
RTVSPost2010Prop46
 90
       50
102
RTVSPost2010PropOp46
 70
     1
102
RTVSPost2010Prop47
 90
       50
102
RTVSPost2010PropOp47
 70
     1
102
RTVSPost2010Prop48
 90
       50
102
RTVSPost2010PropOp48
 70
     1
102
RTVSPost2010Prop49
280
     0
102
RTVSPost2010PropOp49
 70
     1
102
RTVSPost2010Prop50
 90
       50
102
RTVSPost2010PropOp50
 70
     1
102
RTVSPost2010Prop51ColorIndex
 90
      256
102
RTVSPost2010Prop51ColorRGB
 90
-16777216
102
RTVSPost2010PropOp51
 70
     0
102
RTVSPost2010Prop52
140
1.0
102
RTVSPost2010PropOp52
 70
     0
102
RTVSPost2010Prop53
 90
        2
102
RTVSPost2010PropOp53
 70
     1
102
RTVSPost2010Prop54
  1
strokes_ogs.tif
102
RTVSPost2010PropOp54
 70
     1
102
RTVSPost2010Prop55
280
     0
102
RTVSPost2010PropOp55
 70
     1
102
RTVSPost2010Prop56
140
1.0
102
RTVSPost2010PropOp56
 70
     1
102
RTVSPost2010Prop57
140
1.0
102
RTVSPost2010PropOp57
 70
     1
  0
XRECORD
  5
25253
102
{ACAD_REACTORS
330
25252
102
}
330
25252
100
AcDbXrecord
280
     1
102
RTVSPost2010Prop28
280
     0
102
RTVSPost2010PropOp28
 70
     1
102
RTVSPost2010Prop29
280
     1
102
RTVSPost2010PropOp29
 70
     1
102
RTVSPost2010Prop30
280
     1
102
RTVSPost2010PropOp30
 70
     1
102
RTVSPost2010Prop31
280
     0
102
RTVSPost2010PropOp31
 70
     1
102
RTVSPost2010Prop32
280
     0
102
RTVSPost2010PropOp32
 70
     1
102
RTVSPost2010Prop33
280
     0
102
RTVSPost2010PropOp33
 70
     1
102
RTVSPost2010Prop34
280
     0
102
RTVSPost2010PropOp34
 70
     1
102
RTVSPost2010Prop35
280
     0
102
RTVSPost2010PropOp35
 70
     1
102
RTVSPost2010Prop36
280
     0
102
RTVSPost2010PropOp36
 70
     1
102
RTVSPost2010Prop37
 90
       50
102
RTVSPost2010PropOp37
 70
     1
102
RTVSPost2010Prop38
140
0.0
102
RTVSPost2010PropOp38
 70
     1
102
RTVSPost2010Prop39
140
1.0
102
RTVSPost2010PropOp39
 70
     1
102
RTVSPost2010Prop40
 90
        0
102
RTVSPost2010PropOp40
 70
     1
102
RTVSPost2010Prop41ColorIndex
 90
       18
102
RTVSPost2010Prop41ColorRGB
 90
        0
102
RTVSPost2010PropOp41
 70
     1
102
RTVSPost2010Prop42
 90
       50
102
RTVSPost2010PropOp42
 70
     1
102
RTVSPost2010Prop43
 90
        3
102
RTVSPost2010PropOp43
 70
     1
102
RTVSPost2010Prop44ColorIndex
 90
        5
102
RTVSPost2010Prop44ColorRGB
 90
      255
102
RTVSPost2010PropOp44
 70
     1
102
RTVSPost2010Prop45
280
     0
102
RTVSPost2010PropOp45
 70
     1
102
RTVSPost2010Prop46
 90
       50
102
RTVSPost2010PropOp46
 70
     1
102
RTVSPost2010Prop47
 90
       50
102
RTVSPost2010PropOp47
 70
     1
102
RTVSPost2010Prop48
 90
       50
102
RTVSPost2010PropOp48
 70
     1
102
RTVSPost2010Prop49
280
     0
102
RTVSPost2010PropOp49
 70
     1
102
RTVSPost2010Prop50
 90
       50
102
RTVSPost2010PropOp50
 70
     1
102
RTVSPost2010Prop51ColorIndex
 90
      256
102
RTVSPost2010Prop51ColorRGB
 90
-16777216
102
RTVSPost2010PropOp51
 70
     0
102
RTVSPost2010Prop52
140
1.0
102
RTVSPost2010PropOp52
 70
     0
102
RTVSPost2010Prop53
 90
        2
102
RTVSPost2010PropOp53
 70
     1
102
RTVSPost2010Prop54
  1
strokes_ogs.tif
102
RTVSPost2010PropOp54
 70
     1
102
RTVSPost2010Prop55
280
     0
102
RTVSPost2010PropOp55
 70
     1
102
RTVSPost2010Prop56
140
1.0
102
RTVSPost2010PropOp56
 70
     1
102
RTVSPost2010Prop57
140
1.0
102
RTVSPost2010PropOp57
 70
     1
  0
XRECORD
  5
25261
102
{ACAD_REACTORS
330
25260
102
}
330
25260
100
AcDbXrecord
280
     1
102
RTVSPost2010Prop28
280
     0
102
RTVSPost2010PropOp28
 70
     1
102
RTVSPost2010Prop29
280
     1
102
RTVSPost2010PropOp29
 70
     1
102
RTVSPost2010Prop30
280
     1
102
RTVSPost2010PropOp30
 70
     1
102
RTVSPost2010Prop31
280
     0
102
RTVSPost2010PropOp31
 70
     1
102
RTVSPost2010Prop32
280
     0
102
RTVSPost2010PropOp32
 70
     1
102
RTVSPost2010Prop33
280
     0
102
RTVSPost2010PropOp33
 70
     1
102
RTVSPost2010Prop34
280
     0
102
RTVSPost2010PropOp34
 70
     1
102
RTVSPost2010Prop35
280
     0
102
RTVSPost2010PropOp35
 70
     1
102
RTVSPost2010Prop36
280
     0
102
RTVSPost2010PropOp36
 70
     1
102
RTVSPost2010Prop37
 90
       50
102
RTVSPost2010PropOp37
 70
     1
102
RTVSPost2010Prop38
140
0.0
102
RTVSPost2010PropOp38
 70
     1
102
RTVSPost2010Prop39
140
1.0
102
RTVSPost2010PropOp39
 70
     1
102
RTVSPost2010Prop40
 90
        0
102
RTVSPost2010PropOp40
 70
     1
102
RTVSPost2010Prop41ColorIndex
 90
       18
102
RTVSPost2010Prop41ColorRGB
 90
        0
102
RTVSPost2010PropOp41
 70
     1
102
RTVSPost2010Prop42
 90
       50
102
RTVSPost2010PropOp42
 70
     1
102
RTVSPost2010Prop43
 90
        3
102
RTVSPost2010PropOp43
 70
     1
102
RTVSPost2010Prop44ColorIndex
 90
        5
102
RTVSPost2010Prop44ColorRGB
 90
      255
102
RTVSPost2010PropOp44
 70
     1
102
RTVSPost2010Prop45
280
     0
102
RTVSPost2010PropOp45
 70
     1
102
RTVSPost2010Prop46
 90
       50
102
RTVSPost2010PropOp46
 70
     1
102
RTVSPost2010Prop47
 90
       50
102
RTVSPost2010PropOp47
 70
     1
102
RTVSPost2010Prop48
 90
       50
102
RTVSPost2010PropOp48
 70
     1
102
RTVSPost2010Prop49
280
     0
102
RTVSPost2010PropOp49
 70
     1
102
RTVSPost2010Prop50
 90
       50
102
RTVSPost2010PropOp50
 70
     1
102
RTVSPost2010Prop51ColorIndex
 90
      256
102
RTVSPost2010Prop51ColorRGB
 90
-16777216
102
RTVSPost2010PropOp51
 70
     0
102
RTVSPost2010Prop52
140
1.0
102
RTVSPost2010PropOp52
 70
     0
102
RTVSPost2010Prop53
 90
        2
102
RTVSPost2010PropOp53
 70
     1
102
RTVSPost2010Prop54
  1
strokes_ogs.tif
102
RTVSPost2010PropOp54
 70
     1
102
RTVSPost2010Prop55
280
     0
102
RTVSPost2010PropOp55
 70
     1
102
RTVSPost2010Prop56
140
1.0
102
RTVSPost2010PropOp56
 70
     1
102
RTVSPost2010Prop57
140
1.0
102
RTVSPost2010PropOp57
 70
     1
  0
XRECORD
  5
25269
102
{ACAD_REACTORS
330
25268
102
}
330
25268
100
AcDbXrecord
280
     1
102
RTVSPost2010Prop28
280
     0
102
RTVSPost2010PropOp28
 70
     1
102
RTVSPost2010Prop29
280
     1
102
RTVSPost2010PropOp29
 70
     1
102
RTVSPost2010Prop30
280
     1
102
RTVSPost2010PropOp30
 70
     1
102
RTVSPost2010Prop31
280
     0
102
RTVSPost2010PropOp31
 70
     1
102
RTVSPost2010Prop32
280
     0
102
RTVSPost2010PropOp32
 70
     1
102
RTVSPost2010Prop33
280
     0
102
RTVSPost2010PropOp33
 70
     1
102
RTVSPost2010Prop34
280
     0
102
RTVSPost2010PropOp34
 70
     1
102
RTVSPost2010Prop35
280
     0
102
RTVSPost2010PropOp35
 70
     1
102
RTVSPost2010Prop36
280
     0
102
RTVSPost2010PropOp36
 70
     1
102
RTVSPost2010Prop37
 90
       50
102
RTVSPost2010PropOp37
 70
     1
102
RTVSPost2010Prop38
140
0.0
102
RTVSPost2010PropOp38
 70
     1
102
RTVSPost2010Prop39
140
1.0
102
RTVSPost2010PropOp39
 70
     1
102
RTVSPost2010Prop40
 90
        0
102
RTVSPost2010PropOp40
 70
     1
102
RTVSPost2010Prop41ColorIndex
 90
       18
102
RTVSPost2010Prop41ColorRGB
 90
        0
102
RTVSPost2010PropOp41
 70
     1
102
RTVSPost2010Prop42
 90
       50
102
RTVSPost2010PropOp42
 70
     1
102
RTVSPost2010Prop43
 90
        3
102
RTVSPost2010PropOp43
 70
     1
102
RTVSPost2010Prop44ColorIndex
 90
        5
102
RTVSPost2010Prop44ColorRGB
 90
      255
102
RTVSPost2010PropOp44
 70
     1
102
RTVSPost2010Prop45
280
     0
102
RTVSPost2010PropOp45
 70
     1
102
RTVSPost2010Prop46
 90
       50
102
RTVSPost2010PropOp46
 70
     1
102
RTVSPost2010Prop47
 90
       50
102
RTVSPost2010PropOp47
 70
     1
102
RTVSPost2010Prop48
 90
       50
102
RTVSPost2010PropOp48
 70
     1
102
RTVSPost2010Prop49
280
     0
102
RTVSPost2010PropOp49
 70
     1
102
RTVSPost2010Prop50
 90
       50
102
RTVSPost2010PropOp50
 70
     1
102
RTVSPost2010Prop51ColorIndex
 90
      256
102
RTVSPost2010Prop51ColorRGB
 90
-16777216
102
RTVSPost2010PropOp51
 70
     0
102
RTVSPost2010Prop52
140
1.0
102
RTVSPost2010PropOp52
 70
     0
102
RTVSPost2010Prop53
 90
        2
102
RTVSPost2010PropOp53
 70
     1
102
RTVSPost2010Prop54
  1
strokes_ogs.tif
102
RTVSPost2010PropOp54
 70
     1
102
RTVSPost2010Prop55
280
     0
102
RTVSPost2010PropOp55
 70
     1
102
RTVSPost2010Prop56
140
1.0
102
RTVSPost2010PropOp56
 70
     1
102
RTVSPost2010Prop57
140
1.0
102
RTVSPost2010PropOp57
 70
     1
  0
XRECORD
  5
2525B
102
{ACAD_REACTORS
330
2525A
102
}
330
2525A
100
AcDbXrecord
280
     1
102
RTVSPost2010Prop28
280
     0
102
RTVSPost2010PropOp28
 70
     1
102
RTVSPost2010Prop29
280
     1
102
RTVSPost2010PropOp29
 70
     1
102
RTVSPost2010Prop30
280
     1
102
RTVSPost2010PropOp30
 70
     1
102
RTVSPost2010Prop31
280
     0
102
RTVSPost2010PropOp31
 70
     1
102
RTVSPost2010Prop32
280
     0
102
RTVSPost2010PropOp32
 70
     1
102
RTVSPost2010Prop33
280
     0
102
RTVSPost2010PropOp33
 70
     1
102
RTVSPost2010Prop34
280
     0
102
RTVSPost2010PropOp34
 70
     1
102
RTVSPost2010Prop35
280
     0
102
RTVSPost2010PropOp35
 70
     1
102
RTVSPost2010Prop36
280
     0
102
RTVSPost2010PropOp36
 70
     1
102
RTVSPost2010Prop37
 90
       50
102
RTVSPost2010PropOp37
 70
     1
102
RTVSPost2010Prop38
140
0.0
102
RTVSPost2010PropOp38
 70
     1
102
RTVSPost2010Prop39
140
1.0
102
RTVSPost2010PropOp39
 70
     1
102
RTVSPost2010Prop40
 90
        0
102
RTVSPost2010PropOp40
 70
     1
102
RTVSPost2010Prop41ColorIndex
 90
       18
102
RTVSPost2010Prop41ColorRGB
 90
        0
102
RTVSPost2010PropOp41
 70
     1
102
RTVSPost2010Prop42
 90
       50
102
RTVSPost2010PropOp42
 70
     1
102
RTVSPost2010Prop43
 90
        3
102
RTVSPost2010PropOp43
 70
     1
102
RTVSPost2010Prop44ColorIndex
 90
        5
102
RTVSPost2010Prop44ColorRGB
 90
      255
102
RTVSPost2010PropOp44
 70
     1
102
RTVSPost2010Prop45
280
     0
102
RTVSPost2010PropOp45
 70
     1
102
RTVSPost2010Prop46
 90
       50
102
RTVSPost2010PropOp46
 70
     1
102
RTVSPost2010Prop47
 90
       50
102
RTVSPost2010PropOp47
 70
     1
102
RTVSPost2010Prop48
 90
       50
102
RTVSPost2010PropOp48
 70
     1
102
RTVSPost2010Prop49
280
     0
102
RTVSPost2010PropOp49
 70
     1
102
RTVSPost2010Prop50
 90
       50
102
RTVSPost2010PropOp50
 70
     1
102
RTVSPost2010Prop51ColorIndex
 90
      256
102
RTVSPost2010Prop51ColorRGB
 90
-16777216
102
RTVSPost2010PropOp51
 70
     0
102
RTVSPost2010Prop52
140
1.0
102
RTVSPost2010PropOp52
 70
     0
102
RTVSPost2010Prop53
 90
        2
102
RTVSPost2010PropOp53
 70
     1
102
RTVSPost2010Prop54
  1
strokes_ogs.tif
102
RTVSPost2010PropOp54
 70
     1
102
RTVSPost2010Prop55
280
     0
102
RTVSPost2010PropOp55
 70
     1
102
RTVSPost2010Prop56
140
1.0
102
RTVSPost2010PropOp56
 70
     1
102
RTVSPost2010Prop57
140
1.0
102
RTVSPost2010PropOp57
 70
     1
  0
XRECORD
  5
2525F
102
{ACAD_REACTORS
330
2525E
102
}
330
2525E
100
AcDbXrecord
280
     1
102
RTVSPost2010Prop28
280
     0
102
RTVSPost2010PropOp28
 70
     1
102
RTVSPost2010Prop29
280
     1
102
RTVSPost2010PropOp29
 70
     1
102
RTVSPost2010Prop30
280
     1
102
RTVSPost2010PropOp30
 70
     1
102
RTVSPost2010Prop31
280
     0
102
RTVSPost2010PropOp31
 70
     1
102
RTVSPost2010Prop32
280
     0
102
RTVSPost2010PropOp32
 70
     1
102
RTVSPost2010Prop33
280
     0
102
RTVSPost2010PropOp33
 70
     1
102
RTVSPost2010Prop34
280
     0
102
RTVSPost2010PropOp34
 70
     1
102
RTVSPost2010Prop35
280
     0
102
RTVSPost2010PropOp35
 70
     1
102
RTVSPost2010Prop36
280
     0
102
RTVSPost2010PropOp36
 70
     1
102
RTVSPost2010Prop37
 90
       50
102
RTVSPost2010PropOp37
 70
     1
102
RTVSPost2010Prop38
140
0.0
102
RTVSPost2010PropOp38
 70
     1
102
RTVSPost2010Prop39
140
1.0
102
RTVSPost2010PropOp39
 70
     1
102
RTVSPost2010Prop40
 90
        0
102
RTVSPost2010PropOp40
 70
     1
102
RTVSPost2010Prop41ColorIndex
 90
       18
102
RTVSPost2010Prop41ColorRGB
 90
        0
102
RTVSPost2010PropOp41
 70
     1
102
RTVSPost2010Prop42
 90
       50
102
RTVSPost2010PropOp42
 70
     1
102
RTVSPost2010Prop43
 90
        3
102
RTVSPost2010PropOp43
 70
     1
102
RTVSPost2010Prop44ColorIndex
 90
        5
102
RTVSPost2010Prop44ColorRGB
 90
      255
102
RTVSPost2010PropOp44
 70
     1
102
RTVSPost2010Prop45
280
     0
102
RTVSPost2010PropOp45
 70
     1
102
RTVSPost2010Prop46
 90
       50
102
RTVSPost2010PropOp46
 70
     1
102
RTVSPost2010Prop47
 90
       50
102
RTVSPost2010PropOp47
 70
     1
102
RTVSPost2010Prop48
 90
       50
102
RTVSPost2010PropOp48
 70
     1
102
RTVSPost2010Prop49
280
     0
102
RTVSPost2010PropOp49
 70
     1
102
RTVSPost2010Prop50
 90
       50
102
RTVSPost2010PropOp50
 70
     1
102
RTVSPost2010Prop51ColorIndex
 90
      256
102
RTVSPost2010Prop51ColorRGB
 90
-16777216
102
RTVSPost2010PropOp51
 70
     0
102
RTVSPost2010Prop52
140
1.0
102
RTVSPost2010PropOp52
 70
     0
102
RTVSPost2010Prop53
 90
        2
102
RTVSPost2010PropOp53
 70
     1
102
RTVSPost2010Prop54
  1
strokes_ogs.tif
102
RTVSPost2010PropOp54
 70
     1
102
RTVSPost2010Prop55
280
     0
102
RTVSPost2010PropOp55
 70
     1
102
RTVSPost2010Prop56
140
1.0
102
RTVSPost2010PropOp56
 70
     1
102
RTVSPost2010Prop57
140
1.0
102
RTVSPost2010PropOp57
 70
     1
  0
XRECORD
  5
2527D
102
{ACAD_REACTORS
330
2527C
102
}
330
2527C
100
AcDbXrecord
280
     1
102
RTVSPost2010Prop28
280
     0
102
RTVSPost2010PropOp28
 70
     1
102
RTVSPost2010Prop29
280
     1
102
RTVSPost2010PropOp29
 70
     1
102
RTVSPost2010Prop30
280
     1
102
RTVSPost2010PropOp30
 70
     1
102
RTVSPost2010Prop31
280
     0
102
RTVSPost2010PropOp31
 70
     1
102
RTVSPost2010Prop32
280
     0
102
RTVSPost2010PropOp32
 70
     1
102
RTVSPost2010Prop33
280
     0
102
RTVSPost2010PropOp33
 70
     1
102
RTVSPost2010Prop34
280
     0
102
RTVSPost2010PropOp34
 70
     1
102
RTVSPost2010Prop35
280
     0
102
RTVSPost2010PropOp35
 70
     1
102
RTVSPost2010Prop36
280
     0
102
RTVSPost2010PropOp36
 70
     1
102
RTVSPost2010Prop37
 90
       50
102
RTVSPost2010PropOp37
 70
     0
102
RTVSPost2010Prop38
140
0.0
102
RTVSPost2010PropOp38
 70
     0
102
RTVSPost2010Prop39
140
1.0
102
RTVSPost2010PropOp39
 70
     0
102
RTVSPost2010Prop40
 90
        0
102
RTVSPost2010PropOp40
 70
     0
102
RTVSPost2010Prop41ColorIndex
 90
       18
102
RTVSPost2010Prop41ColorRGB
 90
        0
102
RTVSPost2010PropOp41
 70
     0
102
RTVSPost2010Prop42
 90
       50
102
RTVSPost2010PropOp42
 70
     0
102
RTVSPost2010Prop43
 90
        3
102
RTVSPost2010PropOp43
 70
     0
102
RTVSPost2010Prop44ColorIndex
 90
        5
102
RTVSPost2010Prop44ColorRGB
 90
      255
102
RTVSPost2010PropOp44
 70
     0
102
RTVSPost2010Prop45
280
     0
102
RTVSPost2010PropOp45
 70
     1
102
RTVSPost2010Prop46
 90
       50
102
RTVSPost2010PropOp46
 70
     0
102
RTVSPost2010Prop47
 90
       50
102
RTVSPost2010PropOp47
 70
     0
102
RTVSPost2010Prop48
 90
       50
102
RTVSPost2010PropOp48
 70
     0
102
RTVSPost2010Prop49
280
     0
102
RTVSPost2010PropOp49
 70
     1
102
RTVSPost2010Prop50
 90
       50
102
RTVSPost2010PropOp50
 70
     0
102
RTVSPost2010Prop51ColorIndex
 90
      256
102
RTVSPost2010Prop51ColorRGB
 90
-16777216
102
RTVSPost2010PropOp51
 70
     0
102
RTVSPost2010Prop52
140
1.0
102
RTVSPost2010PropOp52
 70
     0
102
RTVSPost2010Prop53
 90
        2
102
RTVSPost2010PropOp53
 70
     0
102
RTVSPost2010Prop54
  1
strokes_ogs.tif
102
RTVSPost2010PropOp54
 70
     0
102
RTVSPost2010Prop55
280
     0
102
RTVSPost2010PropOp55
 70
     1
102
RTVSPost2010Prop56
140
1.0
102
RTVSPost2010PropOp56
 70
     0
102
RTVSPost2010Prop57
140
1.0
102
RTVSPost2010PropOp57
 70
     0
  0
XRECORD
  5
25267
102
{ACAD_REACTORS
330
25266
102
}
330
25266
100
AcDbXrecord
280
     1
102
RTVSPost2010Prop28
280
     0
102
RTVSPost2010PropOp28
 70
     1
102
RTVSPost2010Prop29
280
     1
102
RTVSPost2010PropOp29
 70
     1
102
RTVSPost2010Prop30
280
     1
102
RTVSPost2010PropOp30
 70
     1
102
RTVSPost2010Prop31
280
     0
102
RTVSPost2010PropOp31
 70
     1
102
RTVSPost2010Prop32
280
     0
102
RTVSPost2010PropOp32
 70
     1
102
RTVSPost2010Prop33
280
     0
102
RTVSPost2010PropOp33
 70
     1
102
RTVSPost2010Prop34
280
     0
102
RTVSPost2010PropOp34
 70
     1
102
RTVSPost2010Prop35
280
     0
102
RTVSPost2010PropOp35
 70
     1
102
RTVSPost2010Prop36
280
     0
102
RTVSPost2010PropOp36
 70
     1
102
RTVSPost2010Prop37
 90
       50
102
RTVSPost2010PropOp37
 70
     1
102
RTVSPost2010Prop38
140
0.0
102
RTVSPost2010PropOp38
 70
     1
102
RTVSPost2010Prop39
140
1.0
102
RTVSPost2010PropOp39
 70
     1
102
RTVSPost2010Prop40
 90
        0
102
RTVSPost2010PropOp40
 70
     1
102
RTVSPost2010Prop41ColorIndex
 90
       18
102
RTVSPost2010Prop41ColorRGB
 90
        0
102
RTVSPost2010PropOp41
 70
     1
102
RTVSPost2010Prop42
 90
       50
102
RTVSPost2010PropOp42
 70
     1
102
RTVSPost2010Prop43
 90
        3
102
RTVSPost2010PropOp43
 70
     1
102
RTVSPost2010Prop44ColorIndex
 90
        5
102
RTVSPost2010Prop44ColorRGB
 90
      255
102
RTVSPost2010PropOp44
 70
     1
102
RTVSPost2010Prop45
280
     0
102
RTVSPost2010PropOp45
 70
     1
102
RTVSPost2010Prop46
 90
       50
102
RTVSPost2010PropOp46
 70
     1
102
RTVSPost2010Prop47
 90
       50
102
RTVSPost2010PropOp47
 70
     1
102
RTVSPost2010Prop48
 90
       50
102
RTVSPost2010PropOp48
 70
     1
102
RTVSPost2010Prop49
280
     0
102
RTVSPost2010PropOp49
 70
     1
102
RTVSPost2010Prop50
 90
       50
102
RTVSPost2010PropOp50
 70
     1
102
RTVSPost2010Prop51ColorIndex
 90
      256
102
RTVSPost2010Prop51ColorRGB
 90
-16777216
102
RTVSPost2010PropOp51
 70
     0
102
RTVSPost2010Prop52
140
1.0
102
RTVSPost2010PropOp52
 70
     0
102
RTVSPost2010Prop53
 90
        2
102
RTVSPost2010PropOp53
 70
     1
102
RTVSPost2010Prop54
  1
strokes_ogs.tif
102
RTVSPost2010PropOp54
 70
     1
102
RTVSPost2010Prop55
280
     0
102
RTVSPost2010PropOp55
 70
     1
102
RTVSPost2010Prop56
140
1.0
102
RTVSPost2010PropOp56
 70
     1
102
RTVSPost2010Prop57
140
1.0
102
RTVSPost2010PropOp57
 70
     1
  0
XRECORD
  5
2524B
102
{ACAD_REACTORS
330
2524A
102
}
330
2524A
100
AcDbXrecord
280
     1
102
RTVSPost2010Prop28
280
     0
102
RTVSPost2010PropOp28
 70
     1
102
RTVSPost2010Prop29
280
     1
102
RTVSPost2010PropOp29
 70
     1
102
RTVSPost2010Prop30
280
     1
102
RTVSPost2010PropOp30
 70
     1
102
RTVSPost2010Prop31
280
     0
102
RTVSPost2010PropOp31
 70
     1
102
RTVSPost2010Prop32
280
     0
102
RTVSPost2010PropOp32
 70
     1
102
RTVSPost2010Prop33
280
     0
102
RTVSPost2010PropOp33
 70
     1
102
RTVSPost2010Prop34
280
     0
102
RTVSPost2010PropOp34
 70
     1
102
RTVSPost2010Prop35
280
     0
102
RTVSPost2010PropOp35
 70
     1
102
RTVSPost2010Prop36
280
     0
102
RTVSPost2010PropOp36
 70
     1
102
RTVSPost2010Prop37
 90
       50
102
RTVSPost2010PropOp37
 70
     1
102
RTVSPost2010Prop38
140
0.0
102
RTVSPost2010PropOp38
 70
     1
102
RTVSPost2010Prop39
140
1.0
102
RTVSPost2010PropOp39
 70
     1
102
RTVSPost2010Prop40
 90
        0
102
RTVSPost2010PropOp40
 70
     1
102
RTVSPost2010Prop41ColorIndex
 90
       18
102
RTVSPost2010Prop41ColorRGB
 90
        0
102
RTVSPost2010PropOp41
 70
     1
102
RTVSPost2010Prop42
 90
       50
102
RTVSPost2010PropOp42
 70
     1
102
RTVSPost2010Prop43
 90
        3
102
RTVSPost2010PropOp43
 70
     1
102
RTVSPost2010Prop44ColorIndex
 90
        5
102
RTVSPost2010Prop44ColorRGB
 90
      255
102
RTVSPost2010PropOp44
 70
     1
102
RTVSPost2010Prop45
280
     0
102
RTVSPost2010PropOp45
 70
     1
102
RTVSPost2010Prop46
 90
       50
102
RTVSPost2010PropOp46
 70
     1
102
RTVSPost2010Prop47
 90
       50
102
RTVSPost2010PropOp47
 70
     1
102
RTVSPost2010Prop48
 90
       50
102
RTVSPost2010PropOp48
 70
     1
102
RTVSPost2010Prop49
280
     0
102
RTVSPost2010PropOp49
 70
     1
102
RTVSPost2010Prop50
 90
       50
102
RTVSPost2010PropOp50
 70
     1
102
RTVSPost2010Prop51ColorIndex
 90
      256
102
RTVSPost2010Prop51ColorRGB
 90
-16777216
102
RTVSPost2010PropOp51
 70
     0
102
RTVSPost2010Prop52
140
1.0
102
RTVSPost2010PropOp52
 70
     0
102
RTVSPost2010Prop53
 90
        2
102
RTVSPost2010PropOp53
 70
     1
102
RTVSPost2010Prop54
  1
strokes_ogs.tif
102
RTVSPost2010PropOp54
 70
     1
102
RTVSPost2010Prop55
280
     0
102
RTVSPost2010PropOp55
 70
     1
102
RTVSPost2010Prop56
140
1.0
102
RTVSPost2010PropOp56
 70
     1
102
RTVSPost2010Prop57
140
1.0
102
RTVSPost2010PropOp57
 70
     1
  0
XRECORD
  5
2524D
102
{ACAD_REACTORS
330
2524C
102
}
330
2524C
100
AcDbXrecord
280
     1
102
RTVSPost2010Prop28
280
     0
102
RTVSPost2010PropOp28
 70
     1
102
RTVSPost2010Prop29
280
     1
102
RTVSPost2010PropOp29
 70
     1
102
RTVSPost2010Prop30
280
     1
102
RTVSPost2010PropOp30
 70
     1
102
RTVSPost2010Prop31
280
     0
102
RTVSPost2010PropOp31
 70
     1
102
RTVSPost2010Prop32
280
     0
102
RTVSPost2010PropOp32
 70
     1
102
RTVSPost2010Prop33
280
     0
102
RTVSPost2010PropOp33
 70
     1
102
RTVSPost2010Prop34
280
     0
102
RTVSPost2010PropOp34
 70
     1
102
RTVSPost2010Prop35
280
     0
102
RTVSPost2010PropOp35
 70
     1
102
RTVSPost2010Prop36
280
     0
102
RTVSPost2010PropOp36
 70
     1
102
RTVSPost2010Prop37
 90
       50
102
RTVSPost2010PropOp37
 70
     1
102
RTVSPost2010Prop38
140
0.0
102
RTVSPost2010PropOp38
 70
     1
102
RTVSPost2010Prop39
140
1.0
102
RTVSPost2010PropOp39
 70
     1
102
RTVSPost2010Prop40
 90
        0
102
RTVSPost2010PropOp40
 70
     1
102
RTVSPost2010Prop41ColorIndex
 90
       18
102
RTVSPost2010Prop41ColorRGB
 90
        0
102
RTVSPost2010PropOp41
 70
     1
102
RTVSPost2010Prop42
 90
       50
102
RTVSPost2010PropOp42
 70
     1
102
RTVSPost2010Prop43
 90
        3
102
RTVSPost2010PropOp43
 70
     1
102
RTVSPost2010Prop44ColorIndex
 90
        5
102
RTVSPost2010Prop44ColorRGB
 90
      255
102
RTVSPost2010PropOp44
 70
     1
102
RTVSPost2010Prop45
280
     0
102
RTVSPost2010PropOp45
 70
     1
102
RTVSPost2010Prop46
 90
       50
102
RTVSPost2010PropOp46
 70
     1
102
RTVSPost2010Prop47
 90
       50
102
RTVSPost2010PropOp47
 70
     1
102
RTVSPost2010Prop48
 90
       50
102
RTVSPost2010PropOp48
 70
     1
102
RTVSPost2010Prop49
280
     0
102
RTVSPost2010PropOp49
 70
     1
102
RTVSPost2010Prop50
 90
       50
102
RTVSPost2010PropOp50
 70
     1
102
RTVSPost2010Prop51ColorIndex
 90
      256
102
RTVSPost2010Prop51ColorRGB
 90
-16777216
102
RTVSPost2010PropOp51
 70
     0
102
RTVSPost2010Prop52
140
1.0
102
RTVSPost2010PropOp52
 70
     0
102
RTVSPost2010Prop53
 90
        2
102
RTVSPost2010PropOp53
 70
     1
102
RTVSPost2010Prop54
  1
strokes_ogs.tif
102
RTVSPost2010PropOp54
 70
     1
102
RTVSPost2010Prop55
280
     0
102
RTVSPost2010PropOp55
 70
     1
102
RTVSPost2010Prop56
140
1.0
102
RTVSPost2010PropOp56
 70
     1
102
RTVSPost2010Prop57
140
1.0
102
RTVSPost2010PropOp57
 70
     1
  0
XRECORD
  5
2524F
102
{ACAD_REACTORS
330
2524E
102
}
330
2524E
100
AcDbXrecord
280
     1
102
RTVSPost2010Prop28
280
     0
102
RTVSPost2010PropOp28
 70
     1
102
RTVSPost2010Prop29
280
     1
102
RTVSPost2010PropOp29
 70
     1
102
RTVSPost2010Prop30
280
     1
102
RTVSPost2010PropOp30
 70
     1
102
RTVSPost2010Prop31
280
     0
102
RTVSPost2010PropOp31
 70
     1
102
RTVSPost2010Prop32
280
     0
102
RTVSPost2010PropOp32
 70
     1
102
RTVSPost2010Prop33
280
     0
102
RTVSPost2010PropOp33
 70
     1
102
RTVSPost2010Prop34
280
     0
102
RTVSPost2010PropOp34
 70
     1
102
RTVSPost2010Prop35
280
     0
102
RTVSPost2010PropOp35
 70
     1
102
RTVSPost2010Prop36
280
     0
102
RTVSPost2010PropOp36
 70
     1
102
RTVSPost2010Prop37
 90
       50
102
RTVSPost2010PropOp37
 70
     1
102
RTVSPost2010Prop38
140
0.0
102
RTVSPost2010PropOp38
 70
     1
102
RTVSPost2010Prop39
140
1.0
102
RTVSPost2010PropOp39
 70
     1
102
RTVSPost2010Prop40
 90
        0
102
RTVSPost2010PropOp40
 70
     1
102
RTVSPost2010Prop41ColorIndex
 90
       18
102
RTVSPost2010Prop41ColorRGB
 90
        0
102
RTVSPost2010PropOp41
 70
     1
102
RTVSPost2010Prop42
 90
       50
102
RTVSPost2010PropOp42
 70
     1
102
RTVSPost2010Prop43
 90
        3
102
RTVSPost2010PropOp43
 70
     1
102
RTVSPost2010Prop44ColorIndex
 90
        5
102
RTVSPost2010Prop44ColorRGB
 90
      255
102
RTVSPost2010PropOp44
 70
     1
102
RTVSPost2010Prop45
280
     0
102
RTVSPost2010PropOp45
 70
     1
102
RTVSPost2010Prop46
 90
       50
102
RTVSPost2010PropOp46
 70
     1
102
RTVSPost2010Prop47
 90
       50
102
RTVSPost2010PropOp47
 70
     1
102
RTVSPost2010Prop48
 90
       50
102
RTVSPost2010PropOp48
 70
     1
102
RTVSPost2010Prop49
280
     0
102
RTVSPost2010PropOp49
 70
     1
102
RTVSPost2010Prop50
 90
       50
102
RTVSPost2010PropOp50
 70
     1
102
RTVSPost2010Prop51ColorIndex
 90
      256
102
RTVSPost2010Prop51ColorRGB
 90
-16777216
102
RTVSPost2010PropOp51
 70
     0
102
RTVSPost2010Prop52
140
1.0
102
RTVSPost2010PropOp52
 70
     0
102
RTVSPost2010Prop53
 90
        2
102
RTVSPost2010PropOp53
 70
     1
102
RTVSPost2010Prop54
  1
strokes_ogs.tif
102
RTVSPost2010PropOp54
 70
     1
102
RTVSPost2010Prop55
280
     0
102
RTVSPost2010PropOp55
 70
     1
102
RTVSPost2010Prop56
140
1.0
102
RTVSPost2010PropOp56
 70
     1
102
RTVSPost2010Prop57
140
1.0
102
RTVSPost2010PropOp57
 70
     1
  0
XRECORD
  5
25251
102
{ACAD_REACTORS
330
25250
102
}
330
25250
100
AcDbXrecord
280
     1
102
RTVSPost2010Prop28
280
     0
102
RTVSPost2010PropOp28
 70
     1
102
RTVSPost2010Prop29
280
     1
102
RTVSPost2010PropOp29
 70
     1
102
RTVSPost2010Prop30
280
     1
102
RTVSPost2010PropOp30
 70
     1
102
RTVSPost2010Prop31
280
     0
102
RTVSPost2010PropOp31
 70
     1
102
RTVSPost2010Prop32
280
     0
102
RTVSPost2010PropOp32
 70
     1
102
RTVSPost2010Prop33
280
     0
102
RTVSPost2010PropOp33
 70
     1
102
RTVSPost2010Prop34
280
     0
102
RTVSPost2010PropOp34
 70
     1
102
RTVSPost2010Prop35
280
     0
102
RTVSPost2010PropOp35
 70
     1
102
RTVSPost2010Prop36
280
     0
102
RTVSPost2010PropOp36
 70
     1
102
RTVSPost2010Prop37
 90
       50
102
RTVSPost2010PropOp37
 70
     1
102
RTVSPost2010Prop38
140
0.0
102
RTVSPost2010PropOp38
 70
     1
102
RTVSPost2010Prop39
140
1.0
102
RTVSPost2010PropOp39
 70
     1
102
RTVSPost2010Prop40
 90
        0
102
RTVSPost2010PropOp40
 70
     1
102
RTVSPost2010Prop41ColorIndex
 90
       18
102
RTVSPost2010Prop41ColorRGB
 90
        0
102
RTVSPost2010PropOp41
 70
     1
102
RTVSPost2010Prop42
 90
       50
102
RTVSPost2010PropOp42
 70
     1
102
RTVSPost2010Prop43
 90
        3
102
RTVSPost2010PropOp43
 70
     1
102
RTVSPost2010Prop44ColorIndex
 90
        5
102
RTVSPost2010Prop44ColorRGB
 90
      255
102
RTVSPost2010PropOp44
 70
     1
102
RTVSPost2010Prop45
280
     0
102
RTVSPost2010PropOp45
 70
     1
102
RTVSPost2010Prop46
 90
       50
102
RTVSPost2010PropOp46
 70
     1
102
RTVSPost2010Prop47
 90
       50
102
RTVSPost2010PropOp47
 70
     1
102
RTVSPost2010Prop48
 90
       50
102
RTVSPost2010PropOp48
 70
     1
102
RTVSPost2010Prop49
280
     0
102
RTVSPost2010PropOp49
 70
     1
102
RTVSPost2010Prop50
 90
       50
102
RTVSPost2010PropOp50
 70
     1
102
RTVSPost2010Prop51ColorIndex
 90
      256
102
RTVSPost2010Prop51ColorRGB
 90
-16777216
102
RTVSPost2010PropOp51
 70
     0
102
RTVSPost2010Prop52
140
1.0
102
RTVSPost2010PropOp52
 70
     0
102
RTVSPost2010Prop53
 90
        2
102
RTVSPost2010PropOp53
 70
     1
102
RTVSPost2010Prop54
  1
strokes_ogs.tif
102
RTVSPost2010PropOp54
 70
     1
102
RTVSPost2010Prop55
280
     0
102
RTVSPost2010PropOp55
 70
     1
102
RTVSPost2010Prop56
140
1.0
102
RTVSPost2010PropOp56
 70
     1
102
RTVSPost2010Prop57
140
1.0
102
RTVSPost2010PropOp57
 70
     1
  0
XRECORD
  5
2526D
102
{ACAD_REACTORS
330
2526C
102
}
330
2526C
100
AcDbXrecord
280
     1
102
RTVSPost2010Prop28
280
     0
102
RTVSPost2010PropOp28
 70
     1
102
RTVSPost2010Prop29
280
     1
102
RTVSPost2010PropOp29
 70
     1
102
RTVSPost2010Prop30
280
     1
102
RTVSPost2010PropOp30
 70
     1
102
RTVSPost2010Prop31
280
     0
102
RTVSPost2010PropOp31
 70
     1
102
RTVSPost2010Prop32
280
     0
102
RTVSPost2010PropOp32
 70
     1
102
RTVSPost2010Prop33
280
     0
102
RTVSPost2010PropOp33
 70
     1
102
RTVSPost2010Prop34
280
     0
102
RTVSPost2010PropOp34
 70
     1
102
RTVSPost2010Prop35
280
     0
102
RTVSPost2010PropOp35
 70
     1
102
RTVSPost2010Prop36
280
     0
102
RTVSPost2010PropOp36
 70
     1
102
RTVSPost2010Prop37
 90
       50
102
RTVSPost2010PropOp37
 70
     1
102
RTVSPost2010Prop38
140
0.0
102
RTVSPost2010PropOp38
 70
     1
102
RTVSPost2010Prop39
140
1.0
102
RTVSPost2010PropOp39
 70
     1
102
RTVSPost2010Prop40
 90
        0
102
RTVSPost2010PropOp40
 70
     1
102
RTVSPost2010Prop41ColorIndex
 90
       18
102
RTVSPost2010Prop41ColorRGB
 90
        0
102
RTVSPost2010PropOp41
 70
     1
102
RTVSPost2010Prop42
 90
       50
102
RTVSPost2010PropOp42
 70
     1
102
RTVSPost2010Prop43
 90
        3
102
RTVSPost2010PropOp43
 70
     1
102
RTVSPost2010Prop44ColorIndex
 90
        5
102
RTVSPost2010Prop44ColorRGB
 90
      255
102
RTVSPost2010PropOp44
 70
     1
102
RTVSPost2010Prop45
280
     0
102
RTVSPost2010PropOp45
 70
     1
102
RTVSPost2010Prop46
 90
       50
102
RTVSPost2010PropOp46
 70
     1
102
RTVSPost2010Prop47
 90
       50
102
RTVSPost2010PropOp47
 70
     1
102
RTVSPost2010Prop48
 90
       50
102
RTVSPost2010PropOp48
 70
     1
102
RTVSPost2010Prop49
280
     0
102
RTVSPost2010PropOp49
 70
     1
102
RTVSPost2010Prop50
 90
       50
102
RTVSPost2010PropOp50
 70
     1
102
RTVSPost2010Prop51ColorIndex
 90
      256
102
RTVSPost2010Prop51ColorRGB
 90
-16777216
102
RTVSPost2010PropOp51
 70
     0
102
RTVSPost2010Prop52
140
1.0
102
RTVSPost2010PropOp52
 70
     0
102
RTVSPost2010Prop53
 90
        2
102
RTVSPost2010PropOp53
 70
     1
102
RTVSPost2010Prop54
  1
strokes_ogs.tif
102
RTVSPost2010PropOp54
 70
     1
102
RTVSPost2010Prop55
280
     0
102
RTVSPost2010PropOp55
 70
     1
102
RTVSPost2010Prop56
140
1.0
102
RTVSPost2010PropOp56
 70
     1
102
RTVSPost2010Prop57
140
1.0
102
RTVSPost2010PropOp57
 70
     1
  0
XRECORD
  5
25279
102
{ACAD_REACTORS
330
25278
102
}
330
25278
100
AcDbXrecord
280
     1
102
RTVSPost2010Prop28
280
     0
102
RTVSPost2010PropOp28
 70
     1
102
RTVSPost2010Prop29
280
     1
102
RTVSPost2010PropOp29
 70
     1
102
RTVSPost2010Prop30
280
     1
102
RTVSPost2010PropOp30
 70
     1
102
RTVSPost2010Prop31
280
     0
102
RTVSPost2010PropOp31
 70
     1
102
RTVSPost2010Prop32
280
     0
102
RTVSPost2010PropOp32
 70
     1
102
RTVSPost2010Prop33
280
     0
102
RTVSPost2010PropOp33
 70
     1
102
RTVSPost2010Prop34
280
     0
102
RTVSPost2010PropOp34
 70
     1
102
RTVSPost2010Prop35
280
     0
102
RTVSPost2010PropOp35
 70
     1
102
RTVSPost2010Prop36
280
     0
102
RTVSPost2010PropOp36
 70
     1
102
RTVSPost2010Prop37
 90
       50
102
RTVSPost2010PropOp37
 70
     0
102
RTVSPost2010Prop38
140
0.0
102
RTVSPost2010PropOp38
 70
     0
102
RTVSPost2010Prop39
140
1.0
102
RTVSPost2010PropOp39
 70
     0
102
RTVSPost2010Prop40
 90
        0
102
RTVSPost2010PropOp40
 70
     0
102
RTVSPost2010Prop41ColorIndex
 90
       18
102
RTVSPost2010Prop41ColorRGB
 90
        0
102
RTVSPost2010PropOp41
 70
     0
102
RTVSPost2010Prop42
 90
       50
102
RTVSPost2010PropOp42
 70
     0
102
RTVSPost2010Prop43
 90
        3
102
RTVSPost2010PropOp43
 70
     0
102
RTVSPost2010Prop44ColorIndex
 90
        5
102
RTVSPost2010Prop44ColorRGB
 90
      255
102
RTVSPost2010PropOp44
 70
     0
102
RTVSPost2010Prop45
280
     0
102
RTVSPost2010PropOp45
 70
     1
102
RTVSPost2010Prop46
 90
       50
102
RTVSPost2010PropOp46
 70
     0
102
RTVSPost2010Prop47
 90
       50
102
RTVSPost2010PropOp47
 70
     0
102
RTVSPost2010Prop48
 90
       50
102
RTVSPost2010PropOp48
 70
     0
102
RTVSPost2010Prop49
280
     0
102
RTVSPost2010PropOp49
 70
     1
102
RTVSPost2010Prop50
 90
       50
102
RTVSPost2010PropOp50
 70
     0
102
RTVSPost2010Prop51ColorIndex
 90
      256
102
RTVSPost2010Prop51ColorRGB
 90
-16777216
102
RTVSPost2010PropOp51
 70
     0
102
RTVSPost2010Prop52
140
1.0
102
RTVSPost2010PropOp52
 70
     0
102
RTVSPost2010Prop53
 90
        2
102
RTVSPost2010PropOp53
 70
     0
102
RTVSPost2010Prop54
  1
strokes_ogs.tif
102
RTVSPost2010PropOp54
 70
     0
102
RTVSPost2010Prop55
280
     0
102
RTVSPost2010PropOp55
 70
     1
102
RTVSPost2010Prop56
140
1.0
102
RTVSPost2010PropOp56
 70
     0
102
RTVSPost2010Prop57
140
1.0
102
RTVSPost2010PropOp57
 70
     0
  0
XRECORD
  5
25265
102
{ACAD_REACTORS
330
25264
102
}
330
25264
100
AcDbXrecord
280
     1
102
RTVSPost2010Prop28
280
     0
102
RTVSPost2010PropOp28
 70
     1
102
RTVSPost2010Prop29
280
     1
102
RTVSPost2010PropOp29
 70
     1
102
RTVSPost2010Prop30
280
     1
102
RTVSPost2010PropOp30
 70
     1
102
RTVSPost2010Prop31
280
     0
102
RTVSPost2010PropOp31
 70
     1
102
RTVSPost2010Prop32
280
     0
102
RTVSPost2010PropOp32
 70
     1
102
RTVSPost2010Prop33
280
     0
102
RTVSPost2010PropOp33
 70
     1
102
RTVSPost2010Prop34
280
     0
102
RTVSPost2010PropOp34
 70
     1
102
RTVSPost2010Prop35
280
     0
102
RTVSPost2010PropOp35
 70
     1
102
RTVSPost2010Prop36
280
     0
102
RTVSPost2010PropOp36
 70
     1
102
RTVSPost2010Prop37
 90
       50
102
RTVSPost2010PropOp37
 70
     1
102
RTVSPost2010Prop38
140
0.0
102
RTVSPost2010PropOp38
 70
     1
102
RTVSPost2010Prop39
140
1.0
102
RTVSPost2010PropOp39
 70
     1
102
RTVSPost2010Prop40
 90
        0
102
RTVSPost2010PropOp40
 70
     1
102
RTVSPost2010Prop41ColorIndex
 90
       18
102
RTVSPost2010Prop41ColorRGB
 90
        0
102
RTVSPost2010PropOp41
 70
     1
102
RTVSPost2010Prop42
 90
       50
102
RTVSPost2010PropOp42
 70
     1
102
RTVSPost2010Prop43
 90
        3
102
RTVSPost2010PropOp43
 70
     1
102
RTVSPost2010Prop44ColorIndex
 90
        5
102
RTVSPost2010Prop44ColorRGB
 90
      255
102
RTVSPost2010PropOp44
 70
     1
102
RTVSPost2010Prop45
280
     0
102
RTVSPost2010PropOp45
 70
     1
102
RTVSPost2010Prop46
 90
       50
102
RTVSPost2010PropOp46
 70
     1
102
RTVSPost2010Prop47
 90
       50
102
RTVSPost2010PropOp47
 70
     1
102
RTVSPost2010Prop48
 90
       50
102
RTVSPost2010PropOp48
 70
     1
102
RTVSPost2010Prop49
280
     0
102
RTVSPost2010PropOp49
 70
     1
102
RTVSPost2010Prop50
 90
       50
102
RTVSPost2010PropOp50
 70
     1
102
RTVSPost2010Prop51ColorIndex
 90
      256
102
RTVSPost2010Prop51ColorRGB
 90
-16777216
102
RTVSPost2010PropOp51
 70
     0
102
RTVSPost2010Prop52
140
1.0
102
RTVSPost2010PropOp52
 70
     0
102
RTVSPost2010Prop53
 90
        2
102
RTVSPost2010PropOp53
 70
     1
102
RTVSPost2010Prop54
  1
strokes_ogs.tif
102
RTVSPost2010PropOp54
 70
     1
102
RTVSPost2010Prop55
280
     0
102
RTVSPost2010PropOp55
 70
     1
102
RTVSPost2010Prop56
140
1.0
102
RTVSPost2010PropOp56
 70
     1
102
RTVSPost2010Prop57
140
1.0
102
RTVSPost2010PropOp57
 70
     1
  0
XRECORD
  5
2527B
102
{ACAD_REACTORS
330
2527A
102
}
330
2527A
100
AcDbXrecord
280
     1
102
RTVSPost2010Prop28
280
     0
102
RTVSPost2010PropOp28
 70
     1
102
RTVSPost2010Prop29
280
     1
102
RTVSPost2010PropOp29
 70
     1
102
RTVSPost2010Prop30
280
     1
102
RTVSPost2010PropOp30
 70
     1
102
RTVSPost2010Prop31
280
     0
102
RTVSPost2010PropOp31
 70
     1
102
RTVSPost2010Prop32
280
     0
102
RTVSPost2010PropOp32
 70
     1
102
RTVSPost2010Prop33
280
     0
102
RTVSPost2010PropOp33
 70
     1
102
RTVSPost2010Prop34
280
     0
102
RTVSPost2010PropOp34
 70
     1
102
RTVSPost2010Prop35
280
     0
102
RTVSPost2010PropOp35
 70
     1
102
RTVSPost2010Prop36
280
     0
102
RTVSPost2010PropOp36
 70
     1
102
RTVSPost2010Prop37
 90
       50
102
RTVSPost2010PropOp37
 70
     0
102
RTVSPost2010Prop38
140
0.0
102
RTVSPost2010PropOp38
 70
     0
102
RTVSPost2010Prop39
140
1.0
102
RTVSPost2010PropOp39
 70
     0
102
RTVSPost2010Prop40
 90
        0
102
RTVSPost2010PropOp40
 70
     0
102
RTVSPost2010Prop41ColorIndex
 90
       18
102
RTVSPost2010Prop41ColorRGB
 90
        0
102
RTVSPost2010PropOp41
 70
     0
102
RTVSPost2010Prop42
 90
       50
102
RTVSPost2010PropOp42
 70
     0
102
RTVSPost2010Prop43
 90
        3
102
RTVSPost2010PropOp43
 70
     0
102
RTVSPost2010Prop44ColorIndex
 90
        5
102
RTVSPost2010Prop44ColorRGB
 90
      255
102
RTVSPost2010PropOp44
 70
     0
102
RTVSPost2010Prop45
280
     0
102
RTVSPost2010PropOp45
 70
     1
102
RTVSPost2010Prop46
 90
       50
102
RTVSPost2010PropOp46
 70
     0
102
RTVSPost2010Prop47
 90
       50
102
RTVSPost2010PropOp47
 70
     0
102
RTVSPost2010Prop48
 90
       50
102
RTVSPost2010PropOp48
 70
     0
102
RTVSPost2010Prop49
280
     0
102
RTVSPost2010PropOp49
 70
     1
102
RTVSPost2010Prop50
 90
       50
102
RTVSPost2010PropOp50
 70
     0
102
RTVSPost2010Prop51ColorIndex
 90
      256
102
RTVSPost2010Prop51ColorRGB
 90
-16777216
102
RTVSPost2010PropOp51
 70
     0
102
RTVSPost2010Prop52
140
1.0
102
RTVSPost2010PropOp52
 70
     0
102
RTVSPost2010Prop53
 90
        2
102
RTVSPost2010PropOp53
 70
     0
102
RTVSPost2010Prop54
  1
strokes_ogs.tif
102
RTVSPost2010PropOp54
 70
     0
102
RTVSPost2010Prop55
280
     0
102
RTVSPost2010PropOp55
 70
     1
102
RTVSPost2010Prop56
140
1.0
102
RTVSPost2010PropOp56
 70
     0
102
RTVSPost2010Prop57
140
1.0
102
RTVSPost2010PropOp57
 70
     0
  0
XRECORD
  5
2525D
102
{ACAD_REACTORS
330
2525C
102
}
330
2525C
100
AcDbXrecord
280
     1
102
RTVSPost2010Prop28
280
     0
102
RTVSPost2010PropOp28
 70
     1
102
RTVSPost2010Prop29
280
     1
102
RTVSPost2010PropOp29
 70
     1
102
RTVSPost2010Prop30
280
     1
102
RTVSPost2010PropOp30
 70
     1
102
RTVSPost2010Prop31
280
     0
102
RTVSPost2010PropOp31
 70
     1
102
RTVSPost2010Prop32
280
     0
102
RTVSPost2010PropOp32
 70
     1
102
RTVSPost2010Prop33
280
     0
102
RTVSPost2010PropOp33
 70
     1
102
RTVSPost2010Prop34
280
     0
102
RTVSPost2010PropOp34
 70
     1
102
RTVSPost2010Prop35
280
     0
102
RTVSPost2010PropOp35
 70
     1
102
RTVSPost2010Prop36
280
     0
102
RTVSPost2010PropOp36
 70
     1
102
RTVSPost2010Prop37
 90
       50
102
RTVSPost2010PropOp37
 70
     1
102
RTVSPost2010Prop38
140
0.0
102
RTVSPost2010PropOp38
 70
     1
102
RTVSPost2010Prop39
140
1.0
102
RTVSPost2010PropOp39
 70
     1
102
RTVSPost2010Prop40
 90
        0
102
RTVSPost2010PropOp40
 70
     1
102
RTVSPost2010Prop41ColorIndex
 90
       18
102
RTVSPost2010Prop41ColorRGB
 90
        0
102
RTVSPost2010PropOp41
 70
     1
102
RTVSPost2010Prop42
 90
       50
102
RTVSPost2010PropOp42
 70
     1
102
RTVSPost2010Prop43
 90
        3
102
RTVSPost2010PropOp43
 70
     1
102
RTVSPost2010Prop44ColorIndex
 90
        5
102
RTVSPost2010Prop44ColorRGB
 90
      255
102
RTVSPost2010PropOp44
 70
     1
102
RTVSPost2010Prop45
280
     0
102
RTVSPost2010PropOp45
 70
     1
102
RTVSPost2010Prop46
 90
       50
102
RTVSPost2010PropOp46
 70
     1
102
RTVSPost2010Prop47
 90
       50
102
RTVSPost2010PropOp47
 70
     1
102
RTVSPost2010Prop48
 90
       50
102
RTVSPost2010PropOp48
 70
     1
102
RTVSPost2010Prop49
280
     0
102
RTVSPost2010PropOp49
 70
     1
102
RTVSPost2010Prop50
 90
       50
102
RTVSPost2010PropOp50
 70
     1
102
RTVSPost2010Prop51ColorIndex
 90
      256
102
RTVSPost2010Prop51ColorRGB
 90
-16777216
102
RTVSPost2010PropOp51
 70
     0
102
RTVSPost2010Prop52
140
1.0
102
RTVSPost2010PropOp52
 70
     0
102
RTVSPost2010Prop53
 90
        2
102
RTVSPost2010PropOp53
 70
     1
102
RTVSPost2010Prop54
  1
strokes_ogs.tif
102
RTVSPost2010PropOp54
 70
     1
102
RTVSPost2010Prop55
280
     0
102
RTVSPost2010PropOp55
 70
     1
102
RTVSPost2010Prop56
140
1.0
102
RTVSPost2010PropOp56
 70
     1
102
RTVSPost2010Prop57
140
1.0
102
RTVSPost2010PropOp57
 70
     1
  0
XRECORD
  5
25277
102
{ACAD_REACTORS
330
25276
102
}
330
25276
100
AcDbXrecord
280
     1
102
RTVSPost2010Prop28
280
     0
102
RTVSPost2010PropOp28
 70
     1
102
RTVSPost2010Prop29
280
     1
102
RTVSPost2010PropOp29
 70
     1
102
RTVSPost2010Prop30
280
     1
102
RTVSPost2010PropOp30
 70
     1
102
RTVSPost2010Prop31
280
     0
102
RTVSPost2010PropOp31
 70
     1
102
RTVSPost2010Prop32
280
     0
102
RTVSPost2010PropOp32
 70
     1
102
RTVSPost2010Prop33
280
     0
102
RTVSPost2010PropOp33
 70
     1
102
RTVSPost2010Prop34
280
     0
102
RTVSPost2010PropOp34
 70
     1
102
RTVSPost2010Prop35
280
     0
102
RTVSPost2010PropOp35
 70
     1
102
RTVSPost2010Prop36
280
     0
102
RTVSPost2010PropOp36
 70
     1
102
RTVSPost2010Prop37
 90
       50
102
RTVSPost2010PropOp37
 70
     1
102
RTVSPost2010Prop38
140
0.0
102
RTVSPost2010PropOp38
 70
     1
102
RTVSPost2010Prop39
140
1.0
102
RTVSPost2010PropOp39
 70
     1
102
RTVSPost2010Prop40
 90
        0
102
RTVSPost2010PropOp40
 70
     1
102
RTVSPost2010Prop41ColorIndex
 90
       18
102
RTVSPost2010Prop41ColorRGB
 90
        0
102
RTVSPost2010PropOp41
 70
     1
102
RTVSPost2010Prop42
 90
       50
102
RTVSPost2010PropOp42
 70
     1
102
RTVSPost2010Prop43
 90
        3
102
RTVSPost2010PropOp43
 70
     1
102
RTVSPost2010Prop44ColorIndex
 90
        5
102
RTVSPost2010Prop44ColorRGB
 90
      255
102
RTVSPost2010PropOp44
 70
     1
102
RTVSPost2010Prop45
280
     0
102
RTVSPost2010PropOp45
 70
     1
102
RTVSPost2010Prop46
 90
       50
102
RTVSPost2010PropOp46
 70
     1
102
RTVSPost2010Prop47
 90
       50
102
RTVSPost2010PropOp47
 70
     1
102
RTVSPost2010Prop48
 90
       50
102
RTVSPost2010PropOp48
 70
     1
102
RTVSPost2010Prop49
280
     0
102
RTVSPost2010PropOp49
 70
     1
102
RTVSPost2010Prop50
 90
       50
102
RTVSPost2010PropOp50
 70
     1
102
RTVSPost2010Prop51ColorIndex
 90
      256
102
RTVSPost2010Prop51ColorRGB
 90
-16777216
102
RTVSPost2010PropOp51
 70
     0
102
RTVSPost2010Prop52
140
1.0
102
RTVSPost2010PropOp52
 70
     0
102
RTVSPost2010Prop53
 90
        2
102
RTVSPost2010PropOp53
 70
     1
102
RTVSPost2010Prop54
  1
strokes_ogs.tif
102
RTVSPost2010PropOp54
 70
     1
102
RTVSPost2010Prop55
280
     0
102
RTVSPost2010PropOp55
 70
     1
102
RTVSPost2010Prop56
140
1.0
102
RTVSPost2010PropOp56
 70
     1
102
RTVSPost2010Prop57
140
1.0
102
RTVSPost2010PropOp57
 70
     1
  0
XRECORD
  5
25275
102
{ACAD_REACTORS
330
25274
102
}
330
25274
100
AcDbXrecord
280
     1
102
RTVSPost2010Prop28
280
     0
102
RTVSPost2010PropOp28
 70
     1
102
RTVSPost2010Prop29
280
     1
102
RTVSPost2010PropOp29
 70
     1
102
RTVSPost2010Prop30
280
     1
102
RTVSPost2010PropOp30
 70
     1
102
RTVSPost2010Prop31
280
     0
102
RTVSPost2010PropOp31
 70
     1
102
RTVSPost2010Prop32
280
     0
102
RTVSPost2010PropOp32
 70
     1
102
RTVSPost2010Prop33
280
     0
102
RTVSPost2010PropOp33
 70
     1
102
RTVSPost2010Prop34
280
     0
102
RTVSPost2010PropOp34
 70
     1
102
RTVSPost2010Prop35
280
     0
102
RTVSPost2010PropOp35
 70
     1
102
RTVSPost2010Prop36
280
     0
102
RTVSPost2010PropOp36
 70
     1
102
RTVSPost2010Prop37
 90
       50
102
RTVSPost2010PropOp37
 70
     1
102
RTVSPost2010Prop38
140
0.0
102
RTVSPost2010PropOp38
 70
     1
102
RTVSPost2010Prop39
140
1.0
102
RTVSPost2010PropOp39
 70
     1
102
RTVSPost2010Prop40
 90
        0
102
RTVSPost2010PropOp40
 70
     1
102
RTVSPost2010Prop41ColorIndex
 90
       18
102
RTVSPost2010Prop41ColorRGB
 90
        0
102
RTVSPost2010PropOp41
 70
     1
102
RTVSPost2010Prop42
 90
       50
102
RTVSPost2010PropOp42
 70
     1
102
RTVSPost2010Prop43
 90
        3
102
RTVSPost2010PropOp43
 70
     1
102
RTVSPost2010Prop44ColorIndex
 90
        5
102
RTVSPost2010Prop44ColorRGB
 90
      255
102
RTVSPost2010PropOp44
 70
     1
102
RTVSPost2010Prop45
280
     0
102
RTVSPost2010PropOp45
 70
     1
102
RTVSPost2010Prop46
 90
       50
102
RTVSPost2010PropOp46
 70
     1
102
RTVSPost2010Prop47
 90
       50
102
RTVSPost2010PropOp47
 70
     1
102
RTVSPost2010Prop48
 90
       50
102
RTVSPost2010PropOp48
 70
     1
102
RTVSPost2010Prop49
280
     0
102
RTVSPost2010PropOp49
 70
     1
102
RTVSPost2010Prop50
 90
       50
102
RTVSPost2010PropOp50
 70
     1
102
RTVSPost2010Prop51ColorIndex
 90
      256
102
RTVSPost2010Prop51ColorRGB
 90
-16777216
102
RTVSPost2010PropOp51
 70
     0
102
RTVSPost2010Prop52
140
1.0
102
RTVSPost2010PropOp52
 70
     0
102
RTVSPost2010Prop53
 90
        2
102
RTVSPost2010PropOp53
 70
     1
102
RTVSPost2010Prop54
  1
strokes_ogs.tif
102
RTVSPost2010PropOp54
 70
     1
102
RTVSPost2010Prop55
280
     0
102
RTVSPost2010PropOp55
 70
     1
102
RTVSPost2010Prop56
140
1.0
102
RTVSPost2010PropOp56
 70
     1
102
RTVSPost2010Prop57
140
1.0
102
RTVSPost2010PropOp57
 70
     1
  0
XRECORD
  5
2526F
102
{ACAD_REACTORS
330
2526E
102
}
330
2526E
100
AcDbXrecord
280
     1
102
RTVSPost2010Prop28
280
     0
102
RTVSPost2010PropOp28
 70
     1
102
RTVSPost2010Prop29
280
     1
102
RTVSPost2010PropOp29
 70
     1
102
RTVSPost2010Prop30
280
     1
102
RTVSPost2010PropOp30
 70
     1
102
RTVSPost2010Prop31
280
     0
102
RTVSPost2010PropOp31
 70
     1
102
RTVSPost2010Prop32
280
     0
102
RTVSPost2010PropOp32
 70
     1
102
RTVSPost2010Prop33
280
     0
102
RTVSPost2010PropOp33
 70
     1
102
RTVSPost2010Prop34
280
     0
102
RTVSPost2010PropOp34
 70
     1
102
RTVSPost2010Prop35
280
     0
102
RTVSPost2010PropOp35
 70
     1
102
RTVSPost2010Prop36
280
     0
102
RTVSPost2010PropOp36
 70
     1
102
RTVSPost2010Prop37
 90
       50
102
RTVSPost2010PropOp37
 70
     1
102
RTVSPost2010Prop38
140
0.0
102
RTVSPost2010PropOp38
 70
     1
102
RTVSPost2010Prop39
140
1.0
102
RTVSPost2010PropOp39
 70
     1
102
RTVSPost2010Prop40
 90
        0
102
RTVSPost2010PropOp40
 70
     1
102
RTVSPost2010Prop41ColorIndex
 90
       18
102
RTVSPost2010Prop41ColorRGB
 90
        0
102
RTVSPost2010PropOp41
 70
     1
102
RTVSPost2010Prop42
 90
       50
102
RTVSPost2010PropOp42
 70
     1
102
RTVSPost2010Prop43
 90
        3
102
RTVSPost2010PropOp43
 70
     1
102
RTVSPost2010Prop44ColorIndex
 90
        5
102
RTVSPost2010Prop44ColorRGB
 90
      255
102
RTVSPost2010PropOp44
 70
     1
102
RTVSPost2010Prop45
280
     0
102
RTVSPost2010PropOp45
 70
     1
102
RTVSPost2010Prop46
 90
       50
102
RTVSPost2010PropOp46
 70
     1
102
RTVSPost2010Prop47
 90
       50
102
RTVSPost2010PropOp47
 70
     1
102
RTVSPost2010Prop48
 90
       50
102
RTVSPost2010PropOp48
 70
     1
102
RTVSPost2010Prop49
280
     0
102
RTVSPost2010PropOp49
 70
     1
102
RTVSPost2010Prop50
 90
       50
102
RTVSPost2010PropOp50
 70
     1
102
RTVSPost2010Prop51ColorIndex
 90
      256
102
RTVSPost2010Prop51ColorRGB
 90
-16777216
102
RTVSPost2010PropOp51
 70
     0
102
RTVSPost2010Prop52
140
1.0
102
RTVSPost2010PropOp52
 70
     0
102
RTVSPost2010Prop53
 90
        2
102
RTVSPost2010PropOp53
 70
     1
102
RTVSPost2010Prop54
  1
strokes_ogs.tif
102
RTVSPost2010PropOp54
 70
     1
102
RTVSPost2010Prop55
280
     0
102
RTVSPost2010PropOp55
 70
     1
102
RTVSPost2010Prop56
140
1.0
102
RTVSPost2010PropOp56
 70
     1
102
RTVSPost2010Prop57
140
1.0
102
RTVSPost2010PropOp57
 70
     1
  0
XRECORD
  5
25271
102
{ACAD_REACTORS
330
25270
102
}
330
25270
100
AcDbXrecord
280
     1
102
RTVSPost2010Prop28
280
     0
102
RTVSPost2010PropOp28
 70
     1
102
RTVSPost2010Prop29
280
     1
102
RTVSPost2010PropOp29
 70
     1
102
RTVSPost2010Prop30
280
     1
102
RTVSPost2010PropOp30
 70
     1
102
RTVSPost2010Prop31
280
     0
102
RTVSPost2010PropOp31
 70
     1
102
RTVSPost2010Prop32
280
     0
102
RTVSPost2010PropOp32
 70
     1
102
RTVSPost2010Prop33
280
     0
102
RTVSPost2010PropOp33
 70
     1
102
RTVSPost2010Prop34
280
     0
102
RTVSPost2010PropOp34
 70
     1
102
RTVSPost2010Prop35
280
     0
102
RTVSPost2010PropOp35
 70
     1
102
RTVSPost2010Prop36
280
     0
102
RTVSPost2010PropOp36
 70
     1
102
RTVSPost2010Prop37
 90
       50
102
RTVSPost2010PropOp37
 70
     1
102
RTVSPost2010Prop38
140
0.0
102
RTVSPost2010PropOp38
 70
     1
102
RTVSPost2010Prop39
140
1.0
102
RTVSPost2010PropOp39
 70
     1
102
RTVSPost2010Prop40
 90
        0
102
RTVSPost2010PropOp40
 70
     1
102
RTVSPost2010Prop41ColorIndex
 90
       18
102
RTVSPost2010Prop41ColorRGB
 90
        0
102
RTVSPost2010PropOp41
 70
     1
102
RTVSPost2010Prop42
 90
       50
102
RTVSPost2010PropOp42
 70
     1
102
RTVSPost2010Prop43
 90
        3
102
RTVSPost2010PropOp43
 70
     1
102
RTVSPost2010Prop44ColorIndex
 90
        5
102
RTVSPost2010Prop44ColorRGB
 90
      255
102
RTVSPost2010PropOp44
 70
     1
102
RTVSPost2010Prop45
280
     0
102
RTVSPost2010PropOp45
 70
     1
102
RTVSPost2010Prop46
 90
       50
102
RTVSPost2010PropOp46
 70
     1
102
RTVSPost2010Prop47
 90
       50
102
RTVSPost2010PropOp47
 70
     1
102
RTVSPost2010Prop48
 90
       50
102
RTVSPost2010PropOp48
 70
     1
102
RTVSPost2010Prop49
280
     0
102
RTVSPost2010PropOp49
 70
     1
102
RTVSPost2010Prop50
 90
       50
102
RTVSPost2010PropOp50
 70
     1
102
RTVSPost2010Prop51ColorIndex
 90
      256
102
RTVSPost2010Prop51ColorRGB
 90
-16777216
102
RTVSPost2010PropOp51
 70
     0
102
RTVSPost2010Prop52
140
1.0
102
RTVSPost2010PropOp52
 70
     0
102
RTVSPost2010Prop53
 90
        2
102
RTVSPost2010PropOp53
 70
     1
102
RTVSPost2010Prop54
  1
strokes_ogs.tif
102
RTVSPost2010PropOp54
 70
     1
102
RTVSPost2010Prop55
280
     0
102
RTVSPost2010PropOp55
 70
     1
102
RTVSPost2010Prop56
140
1.0
102
RTVSPost2010PropOp56
 70
     1
102
RTVSPost2010Prop57
140
1.0
102
RTVSPost2010PropOp57
 70
     1
  0
XRECORD
  5
25263
102
{ACAD_REACTORS
330
25262
102
}
330
25262
100
AcDbXrecord
280
     1
102
RTVSPost2010Prop28
280
     0
102
RTVSPost2010PropOp28
 70
     1
102
RTVSPost2010Prop29
280
     1
102
RTVSPost2010PropOp29
 70
     1
102
RTVSPost2010Prop30
280
     1
102
RTVSPost2010PropOp30
 70
     1
102
RTVSPost2010Prop31
280
     0
102
RTVSPost2010PropOp31
 70
     1
102
RTVSPost2010Prop32
280
     0
102
RTVSPost2010PropOp32
 70
     1
102
RTVSPost2010Prop33
280
     0
102
RTVSPost2010PropOp33
 70
     1
102
RTVSPost2010Prop34
280
     0
102
RTVSPost2010PropOp34
 70
     1
102
RTVSPost2010Prop35
280
     0
102
RTVSPost2010PropOp35
 70
     1
102
RTVSPost2010Prop36
280
     0
102
RTVSPost2010PropOp36
 70
     1
102
RTVSPost2010Prop37
 90
       50
102
RTVSPost2010PropOp37
 70
     1
102
RTVSPost2010Prop38
140
0.0
102
RTVSPost2010PropOp38
 70
     1
102
RTVSPost2010Prop39
140
1.0
102
RTVSPost2010PropOp39
 70
     1
102
RTVSPost2010Prop40
 90
        0
102
RTVSPost2010PropOp40
 70
     1
102
RTVSPost2010Prop41ColorIndex
 90
       18
102
RTVSPost2010Prop41ColorRGB
 90
        0
102
RTVSPost2010PropOp41
 70
     1
102
RTVSPost2010Prop42
 90
       50
102
RTVSPost2010PropOp42
 70
     1
102
RTVSPost2010Prop43
 90
        3
102
RTVSPost2010PropOp43
 70
     1
102
RTVSPost2010Prop44ColorIndex
 90
        5
102
RTVSPost2010Prop44ColorRGB
 90
      255
102
RTVSPost2010PropOp44
 70
     1
102
RTVSPost2010Prop45
280
     0
102
RTVSPost2010PropOp45
 70
     1
102
RTVSPost2010Prop46
 90
       50
102
RTVSPost2010PropOp46
 70
     1
102
RTVSPost2010Prop47
 90
       50
102
RTVSPost2010PropOp47
 70
     1
102
RTVSPost2010Prop48
 90
       50
102
RTVSPost2010PropOp48
 70
     1
102
RTVSPost2010Prop49
280
     0
102
RTVSPost2010PropOp49
 70
     1
102
RTVSPost2010Prop50
 90
       50
102
RTVSPost2010PropOp50
 70
     1
102
RTVSPost2010Prop51ColorIndex
 90
      256
102
RTVSPost2010Prop51ColorRGB
 90
-16777216
102
RTVSPost2010PropOp51
 70
     0
102
RTVSPost2010Prop52
140
1.0
102
RTVSPost2010PropOp52
 70
     0
102
RTVSPost2010Prop53
 90
        2
102
RTVSPost2010PropOp53
 70
     1
102
RTVSPost2010Prop54
  1
strokes_ogs.tif
102
RTVSPost2010PropOp54
 70
     1
102
RTVSPost2010Prop55
280
     0
102
RTVSPost2010PropOp55
 70
     1
102
RTVSPost2010Prop56
140
1.0
102
RTVSPost2010PropOp56
 70
     1
102
RTVSPost2010Prop57
140
1.0
102
RTVSPost2010PropOp57
 70
     1
  0
XRECORD
  5
2526B
102
{ACAD_REACTORS
330
2526A
102
}
330
2526A
100
AcDbXrecord
280
     1
102
RTVSPost2010Prop28
280
     0
102
RTVSPost2010PropOp28
 70
     1
102
RTVSPost2010Prop29
280
     1
102
RTVSPost2010PropOp29
 70
     1
102
RTVSPost2010Prop30
280
     1
102
RTVSPost2010PropOp30
 70
     1
102
RTVSPost2010Prop31
280
     0
102
RTVSPost2010PropOp31
 70
     1
102
RTVSPost2010Prop32
280
     0
102
RTVSPost2010PropOp32
 70
     1
102
RTVSPost2010Prop33
280
     0
102
RTVSPost2010PropOp33
 70
     1
102
RTVSPost2010Prop34
280
     0
102
RTVSPost2010PropOp34
 70
     1
102
RTVSPost2010Prop35
280
     0
102
RTVSPost2010PropOp35
 70
     1
102
RTVSPost2010Prop36
280
     0
102
RTVSPost2010PropOp36
 70
     1
102
RTVSPost2010Prop37
 90
       50
102
RTVSPost2010PropOp37
 70
     1
102
RTVSPost2010Prop38
140
0.0
102
RTVSPost2010PropOp38
 70
     1
102
RTVSPost2010Prop39
140
1.0
102
RTVSPost2010PropOp39
 70
     1
102
RTVSPost2010Prop40
 90
        0
102
RTVSPost2010PropOp40
 70
     1
102
RTVSPost2010Prop41ColorIndex
 90
       18
102
RTVSPost2010Prop41ColorRGB
 90
        0
102
RTVSPost2010PropOp41
 70
     1
102
RTVSPost2010Prop42
 90
       50
102
RTVSPost2010PropOp42
 70
     1
102
RTVSPost2010Prop43
 90
        3
102
RTVSPost2010PropOp43
 70
     1
102
RTVSPost2010Prop44ColorIndex
 90
        5
102
RTVSPost2010Prop44ColorRGB
 90
      255
102
RTVSPost2010PropOp44
 70
     1
102
RTVSPost2010Prop45
280
     0
102
RTVSPost2010PropOp45
 70
     1
102
RTVSPost2010Prop46
 90
       50
102
RTVSPost2010PropOp46
 70
     1
102
RTVSPost2010Prop47
 90
       50
102
RTVSPost2010PropOp47
 70
     1
102
RTVSPost2010Prop48
 90
       50
102
RTVSPost2010PropOp48
 70
     1
102
RTVSPost2010Prop49
280
     0
102
RTVSPost2010PropOp49
 70
     1
102
RTVSPost2010Prop50
 90
       50
102
RTVSPost2010PropOp50
 70
     1
102
RTVSPost2010Prop51ColorIndex
 90
      256
102
RTVSPost2010Prop51ColorRGB
 90
-16777216
102
RTVSPost2010PropOp51
 70
     0
102
RTVSPost2010Prop52
140
1.0
102
RTVSPost2010PropOp52
 70
     0
102
RTVSPost2010Prop53
 90
        2
102
RTVSPost2010PropOp53
 70
     1
102
RTVSPost2010Prop54
  1
strokes_ogs.tif
102
RTVSPost2010PropOp54
 70
     1
102
RTVSPost2010Prop55
280
     0
102
RTVSPost2010PropOp55
 70
     1
102
RTVSPost2010Prop56
140
1.0
102
RTVSPost2010PropOp56
 70
     1
102
RTVSPost2010Prop57
140
1.0
102
RTVSPost2010PropOp57
 70
     1
  0
XRECORD
  5
25273
102
{ACAD_REACTORS
330
25272
102
}
330
25272
100
AcDbXrecord
280
     1
102
RTVSPost2010Prop28
280
     0
102
RTVSPost2010PropOp28
 70
     1
102
RTVSPost2010Prop29
280
     1
102
RTVSPost2010PropOp29
 70
     1
102
RTVSPost2010Prop30
280
     1
102
RTVSPost2010PropOp30
 70
     1
102
RTVSPost2010Prop31
280
     0
102
RTVSPost2010PropOp31
 70
     1
102
RTVSPost2010Prop32
280
     0
102
RTVSPost2010PropOp32
 70
     1
102
RTVSPost2010Prop33
280
     0
102
RTVSPost2010PropOp33
 70
     1
102
RTVSPost2010Prop34
280
     0
102
RTVSPost2010PropOp34
 70
     1
102
RTVSPost2010Prop35
280
     0
102
RTVSPost2010PropOp35
 70
     1
102
RTVSPost2010Prop36
280
     0
102
RTVSPost2010PropOp36
 70
     1
102
RTVSPost2010Prop37
 90
       50
102
RTVSPost2010PropOp37
 70
     1
102
RTVSPost2010Prop38
140
0.0
102
RTVSPost2010PropOp38
 70
     1
102
RTVSPost2010Prop39
140
1.0
102
RTVSPost2010PropOp39
 70
     1
102
RTVSPost2010Prop40
 90
        0
102
RTVSPost2010PropOp40
 70
     1
102
RTVSPost2010Prop41ColorIndex
 90
       18
102
RTVSPost2010Prop41ColorRGB
 90
        0
102
RTVSPost2010PropOp41
 70
     1
102
RTVSPost2010Prop42
 90
       50
102
RTVSPost2010PropOp42
 70
     1
102
RTVSPost2010Prop43
 90
        3
102
RTVSPost2010PropOp43
 70
     1
102
RTVSPost2010Prop44ColorIndex
 90
        5
102
RTVSPost2010Prop44ColorRGB
 90
      255
102
RTVSPost2010PropOp44
 70
     1
102
RTVSPost2010Prop45
280
     0
102
RTVSPost2010PropOp45
 70
     1
102
RTVSPost2010Prop46
 90
       50
102
RTVSPost2010PropOp46
 70
     1
102
RTVSPost2010Prop47
 90
       50
102
RTVSPost2010PropOp47
 70
     1
102
RTVSPost2010Prop48
 90
       50
102
RTVSPost2010PropOp48
 70
     1
102
RTVSPost2010Prop49
280
     0
102
RTVSPost2010PropOp49
 70
     1
102
RTVSPost2010Prop50
 90
       50
102
RTVSPost2010PropOp50
 70
     1
102
RTVSPost2010Prop51ColorIndex
 90
      256
102
RTVSPost2010Prop51ColorRGB
 90
-16777216
102
RTVSPost2010PropOp51
 70
     0
102
RTVSPost2010Prop52
140
1.0
102
RTVSPost2010PropOp52
 70
     0
102
RTVSPost2010Prop53
 90
        2
102
RTVSPost2010PropOp53
 70
     1
102
RTVSPost2010Prop54
  1
strokes_ogs.tif
102
RTVSPost2010PropOp54
 70
     1
102
RTVSPost2010Prop55
280
     0
102
RTVSPost2010PropOp55
 70
     1
102
RTVSPost2010Prop56
140
1.0
102
RTVSPost2010PropOp56
 70
     1
102
RTVSPost2010Prop57
140
1.0
102
RTVSPost2010PropOp57
 70
     1
  0
ENDSEC
  0
EOF
